Декабрьские мальчики / December Boys (2007) WEB-DL 720p | P

 
Автор Сообщение

BOSS ®

Пол:

Стаж: 3 года 1 месяц

Сообщений: 8145

Откуда: ODESSA



Награды: 22 (Подробнее)

Top Keeper 3 (Количество: 1) Mega Seeder 3 (Количество: 1) Top Releaser 2 (Количество: 1)
Торрент-статистика

Создавать темы 12-Сен-2017 17:50

[Цитировать]

Информация о фильме
Название: Декабрьские мальчики
Оригинальное название: December Boys
Год выхода: 2007
Жанр: драма, мелодрама
Режиссер: Род Харди
В ролях: Дэниэл Рэдклифф, Ли Корми, Кристиан Байерс, Джеймс Фрайзер, Джек Томпсон, Тереза Палмер, Салливан Степлтон, Виктория Хилл, Макс Каллен, Крис МакКвейд
О фильме:
Декабрьские мальчики — компания четырёх юных сирот, рождённых в декабре. С каждым годом их надежды быть усыновлёными тают на глазах. Но однажды во время отпуска у четырёх друзей появляется надежда найти приёмных родителей, но только для одного из них. Мальчики подружились с молодой парой, неспособной иметь детей и готовой принять ребёнка. Конкурируя между собой, сироты проверяют свою дружбу и встречают первую любовь.

Страна: Австралия
Студия: South Australian Film Corporation, Village Roadshow Pictures
Продолжительность: 01:45:00
Перевод: Профессиональный (многоголосый, закадровый) Пифагор
Релиз:
Файл
Качество: WEB-DL 720p
Формат: Matroska
Видео: 1280x534 at 23.976 fps, MPEG-4 AVC ~4000 kbps avg
Аудио#1: Russian: 48 kHz, AC3, 3/2 (L,C,R,l,r) + LFE ch, ~384 kbps avg |Многоголосый закадровый, Пифагор|
Аудио#2: Ukrainian: 48 kHz, AC3, 3/2 (L,C,R,l,r) + LFE ch, ~384 kbps avg |Многоголосый закадровый|
Аудио#3: English: 48 kHz, AC3, 3/2 (L,C,R,l,r) + LFE ch, ~384 kbps avg
Субтитры: Russian, Ukrainian, English, English (Full)

Знаете ли вы, что...

Фильм снят по мотивам романа Майкла Нунана «Декабрьские мальчики» (December Boys, 1963).
Дэниел Рэдклифф начал изучать и практиковать австралийский акцент, за шесть месяцев до начала съемок.
На 22 минуте автомобиль проезжает по правой стороне дороги, в то время, как в Австралии автомобильное движение по левой стороне.

MediaInfo

Общее
Уникальный идентификатор : 198984061034384409941629164306010710410 (0x95B2EFA831B7245188658342DD53A18A)
Полное имя : December.Boys.2007.720p.WEB-DL.Rus.Ukr.Eng.Subs-HDCLUB.mkv
Формат : Matroska
Версия формата : Version 4 / Version 2
Размер файла : 3,83 Гбайт
Продолжительность : 1 ч. 45 м.
Общий поток : 5219 Кбит/сек
Название фильма : December Boys (2007) - Release for HDCLUB
Дата кодирования : UTC 2015-11-01 16:12:31
Программа кодирования : mkvmerge v6.2.0 ('Promised Land') built on Apr 28 2013 12:22:01
Библиотека кодирования : libebml v1.3.0 + libmatroska v1.4.0
Видео
Идентификатор : 1
Формат : AVC
Формат/Информация : Advanced Video Codec
Профиль формата : Main@L3.1
Параметр CABAC формата : Нет
Параметр ReFrames формата : 2 кадра
Параметр GOP формата : N=1
Идентификатор кодека : V_MPEG4/ISO/AVC
Продолжительность : 1 ч. 45 м.
Битрейт : 3963 Кбит/сек
Ширина : 1280 пикселей
Высота : 534 пикселя
Соотношение сторон : 2,40:1
Режим частоты кадров : Постоянный
Частота кадров : 23,976 кадра/сек
Цветовое пространство : YUV
Субдискретизация насыщенности : 4:2:0
Битовая глубина : 8 бит
Тип развёртки : Прогрессивная
Бит/(Пиксели*Кадры) : 0.242
Размер потока : 2,91 Гбайт (76%)
Язык : English
Default : Да
Forced : Нет
Цветовой диапазон : Limited
Основные цвета : BT.709
Характеристики трансфера : BT.709
Коэффициенты матрицы : BT.709
Аудио #1
Идентификатор : 2
Формат : AC-3
Формат/Информация : Audio Coding 3
Расширение режима : CM (complete main)
Параметр Endianness формата : Big
Идентификатор кодека : A_AC3
Продолжительность : 1 ч. 45 м.
Вид битрейта : Постоянный
Битрейт : 384 Кбит/сек
Каналы : 6 каналов
Расположение каналов : Front: L C R, Side: L R, LFE
Частота : 48,0 КГц
Метод сжатия : С потерями
Размер потока : 288 Мбайт (7%)
Заголовок : Пифагор
Язык : Russian
Default : Да
Forced : Нет
Аудио #2
Идентификатор : 3
Формат : AC-3
Формат/Информация : Audio Coding 3
Расширение режима : CM (complete main)
Параметр Endianness формата : Big
Идентификатор кодека : A_AC3
Продолжительность : 1 ч. 45 м.
Вид битрейта : Постоянный
Битрейт : 384 Кбит/сек
Каналы : 6 каналов
Расположение каналов : Front: L C R, Side: L R, LFE
Частота : 48,0 КГц
Метод сжатия : С потерями
Размер потока : 288 Мбайт (7%)
Язык : Ukrainian
Default : Нет
Forced : Нет
Аудио #3
Идентификатор : 4
Формат : AC-3
Формат/Информация : Audio Coding 3
Расширение режима : CM (complete main)
Параметр Endianness формата : Big
Идентификатор кодека : A_AC3
Продолжительность : 1 ч. 45 м.
Вид битрейта : Постоянный
Битрейт : 384 Кбит/сек
Каналы : 6 каналов
Расположение каналов : Front: L C R, Side: L R, LFE
Частота : 48,0 КГц
Метод сжатия : С потерями
Размер потока : 288 Мбайт (7%)
Язык : English
Default : Нет
Forced : Нет
Текст #1
Идентификатор : 5
Формат : UTF-8
Идентификатор кодека : S_TEXT/UTF8
Идентификатор кодека/Информация : UTF-8 Plain Text
Язык : Russian
Default : Нет
Forced : Нет
Текст #2
Идентификатор : 6
Формат : UTF-8
Идентификатор кодека : S_TEXT/UTF8
Идентификатор кодека/Информация : UTF-8 Plain Text
Язык : Ukrainian
Default : Нет
Forced : Нет
Текст #3
Идентификатор : 7
Формат : UTF-8
Идентификатор кодека : S_TEXT/UTF8
Идентификатор кодека/Информация : UTF-8 Plain Text
Язык : English
Default : Нет
Forced : Нет
Текст #4
Идентификатор : 8
Формат : UTF-8
Идентификатор кодека : S_TEXT/UTF8
Идентификатор кодека/Информация : UTF-8 Plain Text
Заголовок : English for the Hearing Impaired
Язык : English
Default : Нет
Forced : Нет
Меню
00:00:00.000 : en:1
00:04:40.000 : en:2
00:08:27.000 : en:3
00:11:36.000 : en:4
00:15:26.000 : en:5
00:19:29.000 : en:6
00:23:25.000 : en:7
00:26:04.000 : en:8
00:30:20.000 : en:9
00:33:56.000 : en:10
00:38:10.000 : en:11
00:42:01.000 : en:12
00:46:08.000 : en:13
00:50:41.000 : en:14
00:53:52.000 : en:15
00:56:53.000 : en:16
01:01:12.000 : en:17
01:06:30.000 : en:18
01:12:01.000 : en:19
01:15:56.000 : en:20
01:20:55.000 : en:21
01:26:56.000 : en:22
01:29:46.000 : en:23
01:32:35.000 : en:24
01:34:46.000 : en:25
01:39:35.000 : en:26

Скриншоты


[Профиль] [ЛС]
Показать сообщения:    

Текущее время: Сегодня 21:28

Часовой пояс: GMT



Вы не можете начинать темы
Вы не можете отвечать на сообщения
Вы не можете редактировать свои сообщения
Вы не можете удалять свои сообщения
Вы не можете голосовать в опросах
Вы не можете прикреплять файлы к сообщениям
Вы не можете скачивать файлы