Декабрьские мальчики / December boys (Род Харди / Rod Hardy) [2007, Австралия, Драма, мелодрама, WEB-DLRip] MVO (Пифагор) + Original (Eng) + Subs (Rus, Ukr, Eng)

 
Автор Сообщение

TorrentFilm ®

Пол:

Стаж: 1 год 11 месяцев

Сообщений: 7741



Награды: Нет

Торрент-статистика

Создавать темы 07-Ноя-2015 00:10

[Цитировать]

Декабрьские мальчики / December boys
«Когда закончится лето, ничто уже не будет таким как прежде»
- Год выпуска: 2007
Выпущено: Австралия / Village Roadshow Pictures
Жанр: драма, мелодрама
Продолжительность: 01:45:00
Перевод: Профессиональный (многоголосый закадровый) Студия «Пифагор» |Лицензия|
Cубтитры: Русские, Украинские, Английские (внешние .srt*)
Оригинальная аудиодорожка: Английская-Режиссер:
Род Харди / Rod Hardy-В ролях:
Дэниэл Рэдклифф (Maps), Ли Корми (Misty), Кристиан Байерс (Sparks), Джеймс Фрайзер (Spit), Джек Томпсон (Bandy), Тереза Палмер (Lucy), Салливан Степлтон (Fearless), Виктория Хилл (Teresa), Макс Каллен (Adult Misty), Крис МакКвейд (Mrs. McAnsh)-Описание:
Декабрьские мальчики — компания четырёх юных сирот, рождённых в декабре. С каждым годом их надежды быть усыновлёными тают на глазах. Но однажды во время отпуска у четырёх друзей появляется надежда найти приёмных родителей, но только для одного из них. Мальчики подружились с молодой парой, неспособной иметь детей и готовой принять ребёнка. Конкурируя между собой, сироты проверяют свою дружбу и встречают первую любовь.-Релиз групп | | IMDB | КиноПоиск | Сэмпл |-Качество: WEB-DLRip [December.Boys.2007.720p.WEB-DL.Rus.Ukr.Eng.Subs-HDCLUB]
Формат: AVI
Видео: 720x304 (2.37:1), 23.976 fps, XviD build 67 ~1600 kbps avg, 0.30 bit/pixel
Аудио #1: 48 kHz, AC3 Dolby Digital, 3/2 (L,C,R,l,r) + LFE ch, ~384.00 kbps avg (RUS)
Аудио #2: 48 kHz, AC3 Dolby Digital, 3/2 (L,C,R,l,r) + LFE ch, ~384.00 kbps avg (ENG) отдельно
-

Скриншоты

MediaInfo

General
Complete name                            : D:\Dekabrskie_malchiki_2007_WEB-DLRip_by_Dalemake.avi
Format                                   : AVI
Format/Info                              : Audio Video Interleave
File size                                : 1.46 GiB
Duration                                 : 1h 45mn
Overall bit rate                         : 1 993 Kbps
Writing application                      : VirtualDubMod 1.5.10.3 | www.virtualdub-fr.org || (build 2550/release)
Writing library                          : VirtualDubMod build 2550/release
Video
ID                                       : 0
Format                                   : MPEG-4 Visual
Format profile                           : Advanced Simple@L5
Format settings, BVOP                    : 1
Format settings, QPel                    : No
Format settings, GMC                     : No warppoints
Format settings, Matrix                  : Custom
Codec ID                                 : XVID
Codec ID/Hint                            : XviD
Duration                                 : 1h 45mn
Bit rate                                 : 1 600 Kbps
Width                                    : 720 pixels
Height                                   : 304 pixels
Display aspect ratio                     : 2.35:1
Frame rate                               : 23.976 fps
Color space                              : YUV
Chroma subsampling                       : 4:2:0
Bit depth                                : 8 bits
Scan type                                : Progressive
Compression mode                         : Lossy
Bits/(Pixel*Frame)                       : 0.305
Stream size                              : 1.17 GiB (80%)
Writing library                          : XviD 67
Audio
ID                                       : 1
Format                                   : AC-3
Format/Info                              : Audio Coding 3
Mode extension                           : CM (complete main)
Format settings, Endianness              : Big
Codec ID                                 : 2000
Duration                                 : 1h 44mn
Bit rate mode                            : Constant
Bit rate                                 : 384 Kbps
Channel(s)                               : 6 channels
Channel positions                        : Front: L C R, Side: L R, LFE
Sampling rate                            : 48.0 KHz
Bit depth                                : 16 bits
Compression mode                         : Lossy
Stream size                              : 288 MiB (19%)
Alignment                                : Split accross interleaves
Interleave, duration                     : 42 ms (1.00 video frame)
Interleave, preload duration             : 500 ms
-
[Профиль] [ЛС]
Показать сообщения:    

Текущее время: Сегодня 07:05

Часовой пояс: GMT



Вы не можете начинать темы
Вы не можете отвечать на сообщения
Вы не можете редактировать свои сообщения
Вы не можете удалять свои сообщения
Вы не можете голосовать в опросах
Вы не можете прикреплять файлы к сообщениям
Вы не можете скачивать файлы