Дежа вю / Deja Vu (2006) BDRip 1080p от NNNB | D,P,P2,A

 
Автор Сообщение

sergej644 ®

Пол:

Стаж: 4 года 11 месяцев

Сообщений: 6040

Откуда: Soviet Union



Награды: Нет

Торрент-статистика

Создавать темы 18-Янв-2015 02:52

[Цитировать]

Дежа вю / Deja Vu
«Дежа вю считается обманом сознания... а что, если это не так?»
Русское название: Дежа вю
Оригинальное название: Deja Vu
Год выпуска: 2006
Жанр: фантастика, боевик, триллер
Выпущено: США, Великобритания
Режиссер: Тони Скотт
В ролях: Дензел Вашингтон , Пола Пэттон , Вэл Килмер , Джеймс Кэвизел , Адам Голдберг , Элден Хенсон , Эрика Александр , Брюс Гринвуд , Рич Хатчмэн , Мэтт Крэвен , Донна В. Скотт , Эль Фаннинг
Перевод: Дублированный, Профессиональный многоголосый, Профессиональный (двухголосый), Авторский (одноголосый)

Сюжет фильма:
Каждый из нас хотя бы раз в жизни испытывал эффект дежа вю, когда нам вдруг начинает казаться, что мы знакомы с людьми, которых на самом деле раньше никогда не видели, и уже бывали в местах, где на самом деле никогда не были. И, возможно, в такие моменты кому-то приходила в голову мысль, что эти ощущения - не что иное, как предупреждения, посланные нам из прошлого, а может быть, и ключ к познанию будущего.
Агент АТФ Даг Карлин получает возможность совершать путешествия во времени, расследуя обстоятельства взрыва, произошедшего на новоорлеанском пароме. Оказавшись в прошлом, он встречает женщину, которую должны убить, и в итоге влюбляется в нее...

PG-13 - Детям до 13 лет просмотр не желателен

Знаете ли вы, что...

Чтобы подчеркнуть реалистичность действия, Джерри Брукхаймер и Тони Скотт пригласили на площадку нескольких консультантов из Бюро по алкоголю, табаку и огнестрельному оружию - агентства, которое в реальной жизни ведёт расследование всех крупных терактов с использованием взрывчатых веществ. Оно, в частности, расследовало такие печальные события, как трагический подрыв здания Альфреда Э. Марра в Оклахоме и взрыв автомобиля у Всемирного торгового центра в 1993 году. Среди консультантов был и отставной сотрудник агентства Джерри Радден, который 20 лет занимался расследованием подобных масштабных инцидентов.
Особенно тяжело пришлось Джиму Кэвизелу, играющему главного подозреваемого во взрыве, Урстадта. В одной захватывающей сцене Урстадта сбивает машина; на съёмках эта ситуация была смоделирована с потрясающей реалистичностью: перед этим Кэвизела, ради его же безопасности, разместили в стальной клетке. Актёр вспоминает: «Меня посадили в клетку, затем на меня понеслись две машины. Мне пришлось собрать всю волю в кулак, чтобы не отказаться. Я думал только об одном: если клетка не выдержит - прощайте, ноги».
Кэвизелу также пришлось стрелять из автоматов МР-5, что требует особой физической подготовки. Перед съёмками он тренировался с сотрудниками Агентства, которые дали ему ощутить в полной мере мощь этого оружия, снабдив его боевыми патронами.
Большинство сцен погони снято на мосту через Миссисипи, который соединяет западный и восточный берега Нового Орлеана. Высота моста - около 100 метров, поэтому никаких ошибок быть не могло, особенно при столкновении машин. Координатор трюков Чак Пичерни Stunts Unlimited комментирует: «Всё должно было быть проделано чётко. Мы должны были сделать погоню на мосту увлекательной, но в то же время не забыть о безопасности и о том, что мы перекрываем такую важную городскую артерию. Думаю, количество людей, работающих над постановкой трюков, включая местных водителей и профессиональных каскадёров иногда доходило до 50-и человек».
На съёмках применялась камера Time Track производства Digital Air, часто использующаяся в кино для создания эффекта «замороженного движения». При съёмке интерьеров в доме Клер каждое движение Полы Пэттон оставляет за собой след, что создаёт изумительный призрачный эффект, как будто эту сцену снимали 160 объективов, выстроенных в ряд. Камера Lydar, разработанная для военных нужд, использовалась для сканирования помещений - например, дома Клер - и построения диаграмм, выводящихся на экраны в лаборатории. Технология Lydar не может сканировать людей, поэтому Тони Скотт попросил компанию Asylum, делавшую спецэффекты для фильма, создать компьютерную версию проекции человека. Компания Asylum создала для картины 100 дополнительных планов с визуальными эффектами.
Кроме этого, при съёмках использовался ряд военных технологий - таких, как Infrared, Thermal Imaging и Heat Impulse; благодаря им действие стало ещё более реалистичным.
Предполагалось начать съёмки фильма в октябре 2005 года; после разрушения города ураганом «Катрина» проект был поставлен на грань закрытия. После возобновления проекта «Дежа вю» стал первым фильмом, съёмки которого начались в разрушенном городе.
Премьера фильма в России предварительно была намечена на 28 декабря 2006 года.
Идея фильма была частично позаимствована из романа Орсона Скотта Карда «Искупление Христофора Колумба», описывающий две различные истории человечества, в обоих из которых созданы организации по просмотру исторических событий. Некоторые из членов этих организаций решают лично изменить прошлое и совершают прыжок.
Билл Марсиани начал писать сценарий фильма еще в 1997 году.
Между тем, начинающей актрисе Поле Паттон довелось не только побыть связанной с кляпом во рту, избитой и засунутой в чёрный мешок на молнии, но и сниматься в глубине предательских вод реки Миссисипи, с 5-фунтовым автомобильным рулем, привязанным к рукам.
Качество: BDRip 1080p (исходник Blu-ray)
Формат: AVC (библиотека кодирования x.264)
Контейнер (Расширение): MKV
Видео: 1920x800 (2.40:1), 10466 Кбит/сек, 23,976 кадр/сек, 0,284 Бит/[Пиксели*Кадры]
Аудио №1: русский / AC3 / 5.1 / 48 kHz / 640 kbps / |Дубляж, Blu-ray CEE|
Аудио №2: русский / AC3 / 5.1 / 48 kHz / 640 kbps / |Профессиональный многоголосый, Киномания|
Аудио №3: русский / AC3 / 5.1 / 48 kHz / 640 kbps / |Профессиональный двухголосый, П.Гланц и И.Королёва|
Аудио №4: русский / AC3 / 5.1 / 48 kHz / 640 kbps / |Авторский, А. Гаврилов|
Аудио №5: русский / AC3 / 5.1 / 48 kHz / 640 kbps / |Авторский, С.Рябов|
Аудио №6: английский / AC3 / 5.1 / 48 kHz / 640 kbps /
Субтитры: русские (Russian), английские (English)
Навигация по главам(Чаптеры): есть
Продолжительность: 02:06:45
Видеоряд K.A.F.Релиз от: Сообщество:

MediaInfo

Format : Matroska
Format version : Version 2
File size : 12.6 GiB
Duration : 2h 6mn
Overall bit rate : 14.3 Mbps
Movie name : Dezha Vju.(2006).BDRip.1080p.[denis100]
Encoded date : UTC 2015-01-17 07:33:18
Writing application : mkvmerge v5.8.0 ('No Sleep / Pillow') built on Sep 2 2012 15:37:04
Writing library : libebml v1.2.3 + libmatroska v1.3.0
Video
ID : 1
Format : AVC
Format/Info : Advanced Video Codec
Format profile : High@L4.1
Format settings, CABAC : Yes
Format settings, ReFrames : 5 frames
Codec ID : V_MPEG4/ISO/AVC
Duration : 2h 6mn
Bit rate : 10.5 Mbps
Width : 1 920 pixels
Height : 800 pixels
Display aspect ratio : 2.40:1
Frame rate : 23.976 fps
Color space : YUV
Chroma subsampling : 4:2:0
Bit depth : 8 bits
Scan type : Progressive
Bits/(Pixel*Frame) : 0.284
Stream size : 8.99 GiB (71%)
Title : Dezha Vju.(2006).BDRip.1080p.[denis100]
Writing library : x264 core 135 r2345 f0c1c53
Encoding settings : cabac=1 / ref=5 / deblock=1:-1:-1 / analyse=0x3:0x133 / me=tesa / subme=11 / psy=1 / psy_rd=1.00:0.08 / mixed_ref=1 / me_range=32 / chroma_me=1 / trellis=2 / 8x8dct=1 / cqm=0 / deadzone=21,11 / fast_pskip=0 / chroma_qp_offset=-3 / threads=12 / lookahead_threads=1 / sliced_threads=0 / nr=0 / decimate=0 / interlaced=0 / bluray_compat=0 / constrained_intra=0 / bframes=6 / b_pyramid=2 / b_adapt=2 / b_bias=0 / direct=3 / weightb=1 / open_gop=0 / weightp=2 / keyint=240 / keyint_min=23 / scenecut=40 / intra_refresh=0 / rc=2pass / mbtree=0 / bitrate=10466 / ratetol=1.0 / qcomp=0.60 / qpmin=0 / qpmax=69 / qpstep=4 / cplxblur=20.0 / qblur=0.5 / ip_ratio=1.40 / pb_ratio=1.30 / aq=1:1.00
Language : English
Default : Yes
Forced : No
Audio #1
ID : 2
Format : AC-3
Format/Info : Audio Coding 3
Mode extension : CM (complete main)
Codec ID : A_AC3
Duration : 2h 6mn
Bit rate mode : Constant
Bit rate : 640 Kbps
Channel(s) : 6 channels
Channel positions : Front: L C R, Side: L R, LFE
Sampling rate : 48.0 KHz
Bit depth : 16 bits
Compression mode : Lossy
Stream size : 580 MiB (4%)
Title : Дубляж, Blu-ray CEE
Language : Russian
Default : Yes
Forced : No
Audio #2
ID : 3
Format : AC-3
Format/Info : Audio Coding 3
Mode extension : CM (complete main)
Codec ID : A_AC3
Duration : 2h 6mn
Bit rate mode : Constant
Bit rate : 640 Kbps
Channel(s) : 6 channels
Channel positions : Front: L C R, Side: L R, LFE
Sampling rate : 48.0 KHz
Bit depth : 16 bits
Compression mode : Lossy
Stream size : 580 MiB (4%)
Title : Многоголосый, Киномания
Language : Russian
Default : No
Forced : No
Audio #3
ID : 4
Format : AC-3
Format/Info : Audio Coding 3
Mode extension : CM (complete main)
Codec ID : A_AC3
Duration : 2h 6mn
Bit rate mode : Constant
Bit rate : 640 Kbps
Channel(s) : 6 channels
Channel positions : Front: L C R, Side: L R, LFE
Sampling rate : 48.0 KHz
Bit depth : 16 bits
Compression mode : Lossy
Stream size : 580 MiB (4%)
Title : Гланц и Королева
Language : Russian
Default : No
Forced : No
Audio #4
ID : 5
Format : AC-3
Format/Info : Audio Coding 3
Mode extension : CM (complete main)
Codec ID : A_AC3
Duration : 2h 6mn
Bit rate mode : Constant
Bit rate : 640 Kbps
Channel(s) : 6 channels
Channel positions : Front: L C R, Side: L R, LFE
Sampling rate : 48.0 KHz
Bit depth : 16 bits
Compression mode : Lossy
Stream size : 580 MiB (4%)
Title : Авторский, А. Гаврилов
Language : Russian
Default : No
Forced : No
Audio #5
ID : 6
Format : AC-3
Format/Info : Audio Coding 3
Mode extension : CM (complete main)
Codec ID : A_AC3
Duration : 2h 6mn
Bit rate mode : Constant
Bit rate : 640 Kbps
Channel(s) : 6 channels
Channel positions : Front: L C R, Side: L R, LFE
Sampling rate : 48.0 KHz
Bit depth : 16 bits
Compression mode : Lossy
Stream size : 580 MiB (4%)
Title : Авторский, С.Рябов
Language : Russian
Default : No
Forced : No
Audio #6
ID : 7
Format : AC-3
Format/Info : Audio Coding 3
Mode extension : CM (complete main)
Codec ID : A_AC3
Duration : 2h 6mn
Bit rate mode : Constant
Bit rate : 640 Kbps
Channel(s) : 6 channels
Channel positions : Front: L C R, Side: L R, LFE
Sampling rate : 48.0 KHz
Bit depth : 16 bits
Compression mode : Lossy
Stream size : 580 MiB (4%)
Title : English
Language : English
Default : No
Forced : No
Text #1
ID : 8
Format : UTF-8
Codec ID : S_TEXT/UTF8
Codec ID/Info : UTF-8 Plain Text
Title : Russian
Language : Russian
Default : No
Forced : No
Text #2
ID : 9
Format : UTF-8
Codec ID : S_TEXT/UTF8
Codec ID/Info : UTF-8 Plain Text
Title : English
Language : English
Default : No
Forced : No
Menu
00:00:00.000 : :Chapter 01
00:06:20.755 : :Chapter 02
00:15:32.681 : :Chapter 03
00:24:59.206 : :Chapter 04
00:30:20.235 : :Chapter 05
00:38:37.356 : :Chapter 06
00:42:57.992 : :Chapter 07
00:49:30.384 : :Chapter 08
00:55:52.390 : :Chapter 09
00:59:57.385 : :Chapter 10
01:14:15.617 : :Chapter 11
01:20:37.999 : :Chapter 12
01:29:00.418 : :Chapter 13
01:42:49.371 : :Chapter 14
01:54:41.416 : :Chapter 15
01:58:06.621 : :Chapter 16
02:06:26.495 : :Chapter 17

x264

x264 [info]: frame I:1630 Avg QP:18.26 size:211538
x264 [info]: frame P:53690 Avg QP:20.84 size: 77693
x264 [info]: frame B:126585 Avg QP:22.55 size: 42701

Скриншоты

[Профиль] [ЛС]
Кто просматривает тему:

Показать сообщения:    

Текущее время: Сегодня 08:49

Часовой пояс: GMT



Вы не можете начинать темы
Вы не можете отвечать на сообщения
Вы не можете редактировать свои сообщения
Вы не можете удалять свои сообщения
Вы не можете голосовать в опросах
Вы не можете прикреплять файлы к сообщениям
Вы не можете скачивать файлы