Дедушка моей мечты (2015) WEB-DLRip | КПК | iTunes

 
Автор Сообщение

достали все ®

Пол:

Стаж: 1 год 8 месяцев

Сообщений: 6527



Награды: 12 (Подробнее)

Mega Releaser 2 (Количество: 1) За внесенный вклад в развитие сайта (Количество: 1) Mega Seeder 3 (Количество: 1)
Торрент-статистика

Создавать темы 10-Янв-2016 04:40

[Цитировать]

Информация о фильме
Название: Дедушка моей мечты
Год выхода: 2015
Жанр: комедия, семейный
Режиссер: Александр Стриженов
В ролях: Николай Добрынин, Екатерина Стриженова, Леонид Якубович, Анна Ардова, Виктор Супрун, Виталий Хаев, Иван Кокорин, Александр Добровинский, Александр Пряников, Грант Палагаев
О фильме: Гротесковая семейная комедия, поднимающая извечный вопрос о том, насколько мы зависим от материального благополучия, которое внезапно обрушивается на нашу голову.

Выпущено: Россия
Продолжительность: 01:41:54
Озвучивание: Оригинальное [iTunes]
Файл
Кодек: H.264
Качество: WEB-DLRip
Видео: MPEG-4 AVC, ~ 580 Кбит/с, 480х200, 24.000 кадр/с
Звук: AAC LC 4.0, 2 ch, ~ 140 Кбит/с

МедиаИнфо

Общее
Полное имя : Dedushka.moej.mechty.2015.PSP.H264.WEB-DLRip.by.GeneralFilm
Формат : MPEG-4
Профиль формата : Base Media
Идентификатор кодека : isom (isom/avc1/iso6)
Размер файла : 423 Мбайт
Продолжительность : 1 ч. 41 м.
Режим общего битрейта : Переменный
Общий поток : 581 Кбит/сек
Дата кодирования : UTC 2016-01-09 16:00:40
Дата пометки : UTC 2016-01-09 16:00:40
Видео
Идентификатор : 1
Формат : AVC
Формат/Информация : Advanced Video Codec
Профиль формата : Main@L4.1
Параметр CABAC формата : Да
Параметр ReFrames формата : 9 кадров
Идентификатор кодека : avc1
Идентификатор кодека/Информация : Advanced Video Coding
Продолжительность : 1 ч. 41 м.
Битрейт : 460 Кбит/сек
Максимальный битрейт : 3186 Кбит/сек
Ширина : 480 пикселей
Высота : 200 пикселей
Соотношение сторон : 2,40:1
Режим частоты кадров : Постоянный
Частота кадров : 24,000 кадра/сек
Цветовое пространство : YUV
Субдискретизация насыщенности : 4:2:0
Битовая глубина : 8 бит
Тип развёртки : Прогрессивная
Бит/(Пиксели*Кадры) : 0.200
Размер потока : 335 Мбайт (79%)
Заголовок : 264@GPAC0.5.2-DEV-rev248-g39d5978-master
Библиотека кодирования : x264 core 146 r2538 121396c
Настройки программы : cabac=1 / ref=9 / deblock=1:1:1 / analyse=0x1:0x131 / me=umh / subme=10 / psy=1 / psy_rd=1.00:0.00 / mixed_ref=1 / me_range=16 / chroma_me=1 / trellis=2 / 8x8dct=0 / cqm=0 / deadzone=21,11 / fast_pskip=0 / chroma_qp_offset=-2 / threads=12 / lookahead_threads=1 / sliced_threads=0 / nr=0 / decimate=1 / interlaced=0 / bluray_compat=0 / constrained_intra=0 / bframes=3 / b_pyramid=0 / b_adapt=2 / b_bias=0 / direct=3 / weightb=1 / open_gop=0 / weightp=2 / keyint=250 / keyint_min=23 / scenecut=40 / intra_refresh=0 / rc_lookahead=60 / rc=2pass / mbtree=1 / bitrate=460 / ratetol=1.0 / qcomp=0.70 / qpmin=0 / qpmax=69 / qpstep=4 / cplxblur=20.0 / qblur=0.5 / ip_ratio=1.40 / aq=1:0.60
Дата кодирования : UTC 2016-01-09 16:00:40
Дата пометки : UTC 2016-01-09 16:00:52
Аудио
Идентификатор : 2
Формат : AAC
Формат/Информация : Advanced Audio Codec
Профиль формата : LC
Идентификатор кодека : 40
Продолжительность : 1 ч. 41 м.
Вид битрейта : Переменный
Битрейт : 117 Кбит/сек
Максимальный битрейт : 168 Кбит/сек
Каналы : 2 канала
Расположение каналов : Front: L R
Частота : 48,0 КГц
Частота кадров : 46,875 кадров/сек (1024 spf)
Метод сжатия : С потерями
Размер потока : 85,4 Мбайт (20%)
Дата кодирования : UTC 2016-01-09 15:04:05
Дата пометки : UTC 2016-01-09 16:00:52

Скриншоты



Релиз от:
[Профиль] [ЛС]
Показать сообщения:    

Текущее время: Сегодня 20:05

Часовой пояс: GMT



Вы не можете начинать темы
Вы не можете отвечать на сообщения
Вы не можете редактировать свои сообщения
Вы не можете удалять свои сообщения
Вы не можете голосовать в опросах
Вы не можете прикреплять файлы к сообщениям
Вы не можете скачивать файлы