Дедушка моей мечты (2015) WEB-DL 1080p | iTunes

 
Автор Сообщение

BOSS ®

Пол:

Стаж: 2 года 1 месяц

Сообщений: 3713

Откуда: ODESSA



Награды: 20 (Подробнее)

Mega Seeder 1 (Количество: 1) Mega Releaser 3 (Количество: 1) Mega Releaser 2 (Количество: 1)
Торрент-статистика

Создавать темы 04-Дек-2015 22:03

[Цитировать]

Информация о фильме
Название: Дедушка моей мечты
Год выхода: 2015
Жанр: Комедия, семейный
Режиссер: Александр Стриженов
В ролях: Николай Добрынин, Екатерина Стриженова, Леонид Якубович, Анна Ардова, Виктор Супрун, Виталий Хаев, Иван Кокорин, Александр Добровинский, Александр Пряников, Грант Палагаев
О фильме:
Гротесковая семейная комедия, поднимающая извечный вопрос о том, насколько мы зависим от материального благополучия, которое внезапно обрушивается на нашу голову.

Страна: Россия
Продолжительность: 01:41:54
Язык: Русский [iTunes]
Файл
Формат: MKV
Кодек: MPEG-4 AVC
Качество: WEB-DL 1080p
Видео: 1920x804 ~ 4319 Кбит/с 24fps
Аудио RU: AC3, 384 kb/s (6 ch)
Субтитры: Нет

Скриншоты

MI

Общее
Уникальный идентификатор : 213717664817317383681044233816553881113 (0xA0C8866878DF3EB0BE5B94E51A24FE19)
Полное имя : NASMediaДедушка моей мечты.2015.WEB-DL.1080p.mkv
Формат : Matroska
Версия формата : Version 4 / Version 2
Размер файла : 3,41 Гбайт
Продолжительность : 1 ч. 41 м.
Общий поток : 4798 Кбит/сек
Дата кодирования : UTC 2015-12-03 09:41:48
Программа кодирования : mkvmerge v6.5.0 ('Isn't she lovely') built on Oct 20 2013 12:50:05
Библиотека кодирования : libebml v1.3.0 + libmatroska v1.4.1
Видео
Идентификатор : 1
Формат : AVC
Формат/Информация : Advanced Video Codec
Профиль формата : High@L4
Параметр CABAC формата : Да
Параметр ReFrames формата : 5 кадров
Идентификатор кодека : V_MPEG4/ISO/AVC
Продолжительность : 1 ч. 41 м.
Битрейт : 4319 Кбит/сек
Ширина : 1920 пикселей
Высота : 804 пикселя
Соотношение сторон : 2,40:1
Режим частоты кадров : Постоянный
Частота кадров : 24,000 кадра/сек
Цветовое пространство : YUV
Субдискретизация насыщенности : 4:2:0
Битовая глубина : 8 бит
Тип развёртки : Прогрессивная
Бит/(Пиксели*Кадры) : 0.117
Размер потока : 3,07 Гбайт (90%)
Язык : Russian
Default : Да
Forced : Нет
Цветовой диапазон : Limited
Основные цвета : BT.709
Характеристики трансфера : BT.709
Коэффициенты матрицы : BT.709
Аудио
Идентификатор : 2
Формат : AC-3
Формат/Информация : Audio Coding 3
Расширение режима : CM (complete main)
Параметр Endianness формата : Big
Идентификатор кодека : A_AC3
Продолжительность : 1 ч. 41 м.
Вид битрейта : Постоянный
Битрейт : 384 Кбит/сек
Каналы : 6 каналов
Расположение каналов : Front: L C R, Side: L R, LFE
Частота : 48,0 КГц
Частота кадров : 31,250 кадров/сек (1536 spf)
Метод сжатия : С потерями
Размер потока : 280 Мбайт (8%)
Язык : Russian
Default : Да
Forced : Нет
Меню
00:00:00.000 : en:Глава 1
00:05:40.000 : en:Глава 2
00:12:20.000 : en:Глава 3
00:17:42.000 : en:Глава 4
00:22:35.000 : en:Глава 5
00:27:24.000 : en:Глава 6
00:32:04.000 : en:Глава 7
00:36:19.000 : en:Глава 8
00:41:14.000 : en:Глава 9
00:46:05.000 : en:Глава 10
00:52:30.000 : en:Глава 11
00:59:11.000 : en:Глава 12
01:04:37.000 : en:Глава 13
01:09:11.000 : en:Глава 14
01:13:43.000 : en:Глава 15
01:19:06.000 : en:Глава 16
01:25:10.000 : en:Глава 17
01:30:34.000 : en:Глава 18
01:36:32.000 : en:Глава 19
[Профиль] [ЛС]
Показать сообщения:    

Текущее время: Сегодня 15:58

Часовой пояс: GMT



Вы не можете начинать темы
Вы не можете отвечать на сообщения
Вы не можете редактировать свои сообщения
Вы не можете удалять свои сообщения
Вы не можете голосовать в опросах
Вы не можете прикреплять файлы к сообщениям
Вы не можете скачивать файлы