Дедушка моей мечты (Александр Стриженов) [2014, Россия, комедия, семейный, WEB-DL 1080p] + Original Rus

 
Автор Сообщение

TorrentFilm ®

Пол:

Стаж: 2 года

Сообщений: 7741



Награды: Нет

Торрент-статистика

Создавать темы 08-Янв-2016 00:09

[Цитировать]

Дедушка моей мечты
Страна: Россия
Студия: кинокомпания "Пендулум"
Жанр: комедия, семейный
Год выпуска: 2014
Продолжительность: 01:41:53
Перевод: Не требуется
Cубтитры: нет
Оригинальная аудиодорожка: русский
Режиссер: Александр Стриженов
В ролях: Николай Добрынин, Екатерина Стриженова, Леонид Якубович, Анна Ардова, Виктор Супрун, Виталий Хаев, Иван Кокорин, Александр Добровинский, Александр Пряников, Грант Палагаев
Описание: Гротесковая семейная комедия, поднимающая извечный вопрос о том, насколько мы зависим от материального благополучия, которое внезапно обрушивается на нашу голову.

Sample
Тип релиза: WEB-DL 1080p
Контейнер: MKV
Видео: MPEG4 AVC Video, H264, 16:9, 1920x804, 24 fps, 4319 kbps
Аудио: Russian (AC3 6 ch, 384 kbps, 16 bits, 48.0 KHz) - оригинал

MediaInfo

General
Unique ID : 213717664817317383681044233816553881113 (0xA0C8866878DF3EB0BE5B94E51A24FE19)
Complete name : E:\Дедушка моей мечты 2014 WEB-DL 1080p.mkv
Format : Matroska
Format version : Version 4 / Version 2
File size : 3.41 GiB
Duration : 1h 41mn
Overall bit rate : 4 798 Kbps
Encoded date : UTC 2015-12-03 09:41:48
Writing application : mkvmerge v6.5.0 ('Isn't she lovely') built on Oct 20 2013 12:50:05
Writing library : libebml v1.3.0 + libmatroska v1.4.1
Video
ID : 1
Format : AVC
Format/Info : Advanced Video Codec
Format profile : High@L4.0
Format settings, CABAC : Yes
Format settings, ReFrames : 5 frames
Codec ID : V_MPEG4/ISO/AVC
Duration : 1h 41mn
Bit rate : 4 319 Kbps
Width : 1 920 pixels
Height : 804 pixels
Display aspect ratio : 2.40:1
Frame rate mode : Constant
Frame rate : 24.000 fps
Color space : YUV
Chroma subsampling : 4:2:0
Bit depth : 8 bits
Scan type : Progressive
Bits/(Pixel*Frame) : 0.117
Stream size : 3.07 GiB (90%)
Language : Russian
Default : Yes
Forced : No
Color primaries : BT.709
Transfer characteristics : BT.709
Matrix coefficients : BT.709
Audio
ID : 2
Format : AC-3
Format/Info : Audio Coding 3
Mode extension : CM (complete main)
Format settings, Endianness : Big
Codec ID : A_AC3
Duration : 1h 41mn
Bit rate mode : Constant
Bit rate : 384 Kbps
Channel count : 6 channels
Channel positions : Front: L C R, Side: L R, LFE
Sampling rate : 48.0 KHz
Bit depth : 16 bits
Compression mode : Lossy
Stream size : 280 MiB (8%)
Language : Russian
Default : Yes
Forced : No
Menu
00:00:00.000 : en:Глава 1
00:05:40.000 : en:Глава 2
00:12:20.000 : en:Глава 3
00:17:42.000 : en:Глава 4
00:22:35.000 : en:Глава 5
00:27:24.000 : en:Глава 6
00:32:04.000 : en:Глава 7
00:36:19.000 : en:Глава 8
00:41:14.000 : en:Глава 9
00:46:05.000 : en:Глава 10
00:52:30.000 : en:Глава 11
00:59:11.000 : en:Глава 12
01:04:37.000 : en:Глава 13
01:09:11.000 : en:Глава 14
01:13:43.000 : en:Глава 15
01:19:06.000 : en:Глава 16
01:25:10.000 : en:Глава 17
01:30:34.000 : en:Глава 18
01:36:32.000 : en:Глава 19

Скриншоты

[Профиль] [ЛС]
Показать сообщения:    

Текущее время: Сегодня 02:31

Часовой пояс: GMT



Вы не можете начинать темы
Вы не можете отвечать на сообщения
Вы не можете редактировать свои сообщения
Вы не можете удалять свои сообщения
Вы не можете голосовать в опросах
Вы не можете прикреплять файлы к сообщениям
Вы не можете скачивать файлы