Дедушка легкого поведения / Dirty Grandpa (2016) BDRip-AVC | Расширенная версия | iTunes

 
Автор Сообщение

Russian Mafia ®

Пол:

Стаж: 1 год 8 месяцев

Сообщений: 4247



Награды: 10 (Подробнее)

Top Releaser 5 (Количество: 1) Top Releaser 2 (Количество: 1) Mega Seeder 5 (Количество: 1)
Торрент-статистика

Создавать темы 06-Май-2016 18:44

[Цитировать]

Информация о фильме
Название: Дедушка легкого поведения
Оригинальное название: Dirty Grandpa
Год выпуска: 2016
Страна: США
Жанр: комедия-Перевод: Дубляж - [iTunes]
Примечание: UNRATED - расширенная версия, длиннее российской прокатной на ~8 минут. Не хватает около 7 минут перевода, переведено Русскими субтитрами "Google Translate".
Субтитры: русские (Forced), английские (Full), английские (SDH)
Продолжительность: 01:49:34-Режиссер: Дэн Мазер
В ролях: Роберт Де Ниро (Dick Kelly), Зак Эфрон (Jason Kelly), Зои Дойч (Shadia), Обри Плаза (Lenore), Джейсон Манцукас (Tan Pam), Дермот Малруни (David Kelly), Джулианна Хаф (Meredith), Джеффри Бауэр-Чепман (Bradley), Брэндон Майкал Смит (Tyrone), Джейк Пикинг (Cody), Майкл Хадсон (Brah), Адам Палли (Cousin Nick)-Описание:
Джейсон, покладистый правильный парень, накануне свадьбы вляпывается в увеселительную поездку к морю со своим дедом, отставным генералом с легким нравом, бурной фантазией и вполне определенными потребностями... И, похоже, дедские каникулы изменят жизнь Джейсона навсегда!-Рейтинг:

MPAA: R - Лицам до 17 лет обязательно присутствие взрослого-Качество: BDRip-AVC
Формат: MKV
Видео: AVC, 1056x440 (2.40:1), 2780 kbps, 23,976 fps, 0,250 bpp
Аудио №1: русский / AC3 / 5.1 / 48 kHz / 384 kbps / 16 bit |iTunes|
Аудио №2: английский / AC3 / 5.1 / 48 kHz / 448 kbps / 16 bit
Навигация по главам: есть
Семпл-Релиз от: by -Lexx--

ОтчетМедиаИнфо

General
Unique ID : 172708690739330762182714381774794637788 (0x81EE7BE1DBCF09BA8629630DDBFDC1DC)
Complete name : H:Дедушка легкого поведенияDirty.Grandpa.2016.BDRip-AVC.by.R.G.Resident.mkv
Format : Matroska
Format version : Version 4 / Version 2
File size : 2.77 GiB
Duration : 1h 49mn
Overall bit rate : 3 613 Kbps
Movie name : Дедушка легкого поведения (2016) BDRip-AVC by R.G. Resident
Encoded date : UTC 2016-05-06 17:40:05
Writing application : mkvmerge v9.1.0 ('Little Earthquakes') 64bit
Writing library : libebml v1.3.3 + libmatroska v1.4.4
DURATION : 01:49:34.624000000
NUMBER_OF_FRAMES : 205457
NUMBER_OF_BYTES : 368178944
_STATISTICS_WRITING_APP : mkvmerge v9.1.0 ('Little Earthquakes') 64bit
_STATISTICS_WRITING_DATE_UTC : 2016-05-06 17:40:05
_STATISTICS_TAGS : BPS DURATION NUMBER_OF_FRAMES NUMBER_OF_BYTES
Video
ID : 1
Format : AVC
Format/Info : Advanced Video Codec
Format profile : High@L4.1
Format settings, CABAC : Yes
Format settings, ReFrames : 9 frames
Codec ID : V_MPEG4/ISO/AVC
Duration : 1h 49mn
Bit rate : 2 780 Kbps
Width : 1 056 pixels
Height : 440 pixels
Display aspect ratio : 2.40:1
Frame rate : 23.976 fps
Color space : YUV
Chroma subsampling : 4:2:0
Bit depth : 8 bits
Scan type : Progressive
Bits/(Pixel*Frame) : 0.250
Stream size : 2.07 GiB (75%)
Title : -Lexx-
Writing library : x264 core 146 r2538 121396c
Encoding settings : cabac=1 / ref=9 / deblock=1:-2:-2 / analyse=0x3:0x113 / me=umh / subme=11 / psy=1 / psy_rd=1.00:0.10 / mixed_ref=1 / me_range=48 / chroma_me=1 / trellis=2 / 8x8dct=1 / cqm=0 / deadzone=21,11 / fast_pskip=0 / chroma_qp_offset=-3 / threads=6 / lookahead_threads=2 / sliced_threads=0 / nr=0 / decimate=1 / interlaced=0 / bluray_compat=0 / constrained_intra=0 / bframes=10 / b_pyramid=2 / b_adapt=2 / b_bias=0 / direct=3 / weightb=1 / open_gop=0 / weightp=2 / keyint=240 / keyint_min=23 / scenecut=40 / intra_refresh=0 / rc=2pass / mbtree=0 / bitrate=2780 / ratetol=1.0 / qcomp=0.60 / qpmin=0 / qpmax=69 / qpstep=4 / cplxblur=20.0 / qblur=0.5 / ip_ratio=1.40 / pb_ratio=1.30 / aq=1:1.00
Language : English
Default : Yes
Forced : No
DURATION : 01:49:34.568000000
NUMBER_OF_FRAMES : 157632
NUMBER_OF_BYTES : 2283726300
_STATISTICS_WRITING_APP : mkvmerge v9.1.0 ('Little Earthquakes') 64bit
_STATISTICS_WRITING_DATE_UTC : 2016-05-06 17:40:05
_STATISTICS_TAGS : BPS DURATION NUMBER_OF_FRAMES NUMBER_OF_BYTES
Audio #1
ID : 2
Format : AC-3
Format/Info : Audio Coding 3
Mode extension : CM (complete main)
Codec ID : A_AC3
Duration : 1h 49mn
Bit rate mode : Constant
Bit rate : 384 Kbps
Channel(s) : 6 channels
Channel positions : Front: L C R, Side: L R, LFE
Sampling rate : 48.0 KHz
Bit depth : 16 bits
Compression mode : Lossy
Stream size : 301 MiB (11%)
Title : Дубляж - iTunes
Language : Russian
Default : Yes
Forced : No
Audio #2
ID : 3
Format : AC-3
Format/Info : Audio Coding 3
Mode extension : CM (complete main)
Codec ID : A_AC3
Duration : 1h 49mn
Bit rate mode : Constant
Bit rate : 448 Kbps
Channel(s) : 6 channels
Channel positions : Front: L C R, Side: L R, LFE
Sampling rate : 48.0 KHz
Bit depth : 16 bits
Compression mode : Lossy
Stream size : 351 MiB (12%)
Title : Original
Language : English
Default : No
Forced : No
Text #1
ID : 4
Format : UTF-8
Codec ID : S_TEXT/UTF8
Codec ID/Info : UTF-8 Plain Text
Title : Forced
Language : Russian
Default : Yes
Forced : No
Text #2
ID : 5
Format : UTF-8
Codec ID : S_TEXT/UTF8
Codec ID/Info : UTF-8 Plain Text
Title : Full
Language : English
Default : No
Forced : No
Text #3
ID : 6
Format : UTF-8
Codec ID : S_TEXT/UTF8
Codec ID/Info : UTF-8 Plain Text
Title : SDH
Language : English
Default : No
Forced : No
Menu
00:00:00.000 : en:00:00:00.000
00:06:38.148 : en:00:06:38.148
00:11:28.730 : en:00:11:28.730
00:17:15.743 : en:00:17:15.743
00:25:03.585 : en:00:25:03.585
00:31:17.209 : en:00:31:17.209
00:37:24.450 : en:00:37:24.450
00:48:56.600 : en:00:48:56.600
00:52:35.360 : en:00:52:35.360
00:58:19.287 : en:00:58:19.287
01:03:28.554 : en:01:03:28.554
01:06:47.712 : en:01:06:47.712
01:14:30.049 : en:01:14:30.049
01:21:14.077 : en:01:21:14.077
01:28:26.843 : en:01:28:26.843
01:38:16.182 : en:01:38:16.182

Скриншоты

[Профиль] [ЛС]
Показать сообщения:    

Текущее время: Сегодня 04:14

Часовой пояс: GMT



Вы не можете начинать темы
Вы не можете отвечать на сообщения
Вы не можете редактировать свои сообщения
Вы не можете удалять свои сообщения
Вы не можете голосовать в опросах
Вы не можете прикреплять файлы к сообщениям
Вы не можете скачивать файлы