Дедушка легкого поведения / Dirty Grandpa (2016) BDRip 720p | iTunes | Расширенная версия

 
Автор Сообщение

Russian Mafia ®

Пол:

Стаж: 1 год 8 месяцев

Сообщений: 4246



Награды: 10 (Подробнее)

Mega Seeder 5 (Количество: 1) Top Releaser 5 (Количество: 1) Top Releaser 3 (Количество: 1)
Торрент-статистика

Создавать темы 05-Май-2016 07:31

[Цитировать]

Информация о фильме
Название: Дедушка легкого поведения
Оригинальное название: Dirty Grandpa
Страна: США
Студия: BillBlock Media
Жанр: комедия
Год выпуска: 2016
Продолжительность: 01:49:34
Перевод: Профессиональный (дублированный) iTunes
Cубтитры: Rus (Forced), Eng
Оригинальная аудиодорожка: английский
Режиссер: Дэн Мазер / Dan Mazer
В ролях: Роберт Де Ниро, Зак Эфрон, Зои Дойч, Обри Плаза, Джейсон Манцукас, Дермот Малруни, Джулианна Хаф, Джеффри Бауэр-Чепман, Брэндон Майкал Смит, Джейк Пикинг, Майкл Хадсон, Адам Палли, Мо Коллинз, Генри Жебровский, Катрин Дайер, Дина Дилл, Лэйн Кэрлок, Кристофер Сеттикейс, Эрик Гойнс, Гэвин Мунн
Описание: Джейсон, покладистый правильный парень, накануне свадьбы вляпывается в увеселительную поездку к морю со своим дедом, отставным генералом с легким нравом, бурной фантазией и вполне определенными потребностями… И, похоже, дедские каникулы изменят жизнь Джейсона навсегда!
Примечание: UNRATED - расширенная версия, длиннее российской прокатной на ~8 минут. Не хватает около 7 минут перевода, переведено Русскими субтитрами "Google Translate".

Тип релиза: BDRip 720p
Контейнер: MKV
Видео: MPEG-4 AVC, 6860 Кбит/с, 1280x534, 23,976 fps
Аудио: Rus, AC3, 384 kb/s (6 ch), 48 kHz
Аудио 2: Eng, DTS, 1510 kb/s (6 ch), 48 kHz
Формат субтитров: softsub (SRT)

MediaInfo

x264 [info]: frame I:1655 Avg QP:14.76 size:145978
x264 [info]: frame P:34808 Avg QP:15.61 size: 60924
x264 [info]: frame B:121171 Avg QP:17.27 size: 28214
Format : Matroska
Format version : Version 4 / Version 2
File size : 6.84 GiB
Duration : 1h 49mn
Overall bit rate : 8 930 Kbps
Movie name : Дедушка легкого поведения. (Tonik)
Encoded date : UTC 2016-05-05 06:53:51
Writing application : mkvmerge v7.1.0 ('Good Love') 64bit built on Jul 27 2014 13:06:55
Writing library : libebml v1.3.0 + libmatroska v1.4.1
_STATISTICS_WRITING_APP : mkvmerge v7.1.0 ('Good Love') 64bit built on Jul 27 2014 13:06:55
_STATISTICS_WRITING_DATE_UTC : 2016-05-05 06:53:51
_STATISTICS_TAGS : BPS DURATION NUMBER_OF_FRAMES NUMBER_OF_BYTES
DURATION : 01:42:03.677000000
NUMBER_OF_FRAMES : 265
NUMBER_OF_BYTES : 18071
Video
ID : 1
Format : AVC
Format/Info : Advanced Video Codec
Format profile : High@L4.1
Format settings, CABAC : Yes
Format settings, ReFrames : 12 frames
Codec ID : V_MPEG4/ISO/AVC
Duration : 1h 49mn
Bit rate : 6 860 Kbps
Width : 1 280 pixels
Height : 534 pixels
Display aspect ratio : 2.40:1
Frame rate mode : Constant
Frame rate : 23.976 fps
Color space : YUV
Chroma subsampling : 4:2:0
Bit depth : 8 bits
Scan type : Progressive
Bits/(Pixel*Frame) : 0.419
Stream size : 5.25 GiB (77%)
Title : x264
Writing library : x264 core 148 r2638 7599210
Encoding settings : cabac=1 / ref=12 / deblock=1:-3:-3 / analyse=0x3:0x133 / me=tesa / subme=11 / psy=1 / psy_rd=1.00:0.00 / mixed_ref=1 / me_range=24 / chroma_me=1 / trellis=2 / 8x8dct=1 / cqm=0 / deadzone=21,11 / fast_pskip=0 / chroma_qp_offset=-2 / threads=12 / lookahead_threads=3 / sliced_threads=0 / nr=0 / decimate=1 / interlaced=0 / bluray_compat=0 / constrained_intra=0 / bframes=10 / b_pyramid=2 / b_adapt=2 / b_bias=0 / direct=3 / weightb=1 / open_gop=0 / weightp=2 / keyint=240 / keyint_min=23 / scenecut=40 / intra_refresh=0 / rc_lookahead=60 / rc=crf / mbtree=0 / crf=15.9 / qcomp=0.73 / qpmin=0 / qpmax=69 / qpstep=4 / vbv_maxrate=62500 / vbv_bufsize=78125 / crf_max=0.0 / nal_hrd=none / filler=0 / ip_ratio=1.33 / pb_ratio=1.21 / aq=1:0.80
Language : English
Default : Yes
Forced : No
Audio #1
ID : 2
Format : AC-3
Format/Info : Audio Coding 3
Mode extension : CM (complete main)
Format settings, Endianness : Big
Codec ID : A_AC3
Duration : 1h 49mn
Bit rate mode : Constant
Bit rate : 384 Kbps
Channel(s) : 6 channels
Channel positions : Front: L C R, Side: L R, LFE
Sampling rate : 48.0 KHz
Bit depth : 16 bits
Compression mode : Lossy
Stream size : 301 MiB (4%)
Language : Russian
Default : Yes
Forced : No
Audio #2
ID : 3
Format : DTS
Format/Info : Digital Theater Systems
Mode : 16
Format settings, Endianness : Big
Codec ID : A_DTS
Duration : 1h 49mn
Bit rate mode : Constant
Bit rate : 1 509 Kbps
Channel(s) : 6 channels
Channel positions : Front: L C R, Side: L R, LFE
Sampling rate : 48.0 KHz
Bit depth : 24 bits
Compression mode : Lossy
Stream size : 1.15 GiB (17%)
Language : English
Default : No
Forced : No
Text #1
ID : 4
Format : UTF-8
Codec ID : S_TEXT/UTF8
Codec ID/Info : UTF-8 Plain Text
Title : Forced
Language : Russian
Default : Yes
Forced : No
Text #2
ID : 5
Format : UTF-8
Codec ID : S_TEXT/UTF8
Codec ID/Info : UTF-8 Plain Text
Language : English
Default : No
Forced : No
Text #3
ID : 6
Format : UTF-8
Codec ID : S_TEXT/UTF8
Codec ID/Info : UTF-8 Plain Text
Title : SDH
Language : English
Default : No
Forced : No
Menu
00:00:00.000 : en:00:00:00.000
00:06:38.148 : en:00:06:38.148
00:11:28.730 : en:00:11:28.730
00:17:15.743 : en:00:17:15.743
00:25:03.585 : en:00:25:03.585
00:31:17.209 : en:00:31:17.209
00:37:24.450 : en:00:37:24.450
00:48:56.600 : en:00:48:56.600
00:52:35.360 : en:00:52:35.360
00:58:19.287 : en:00:58:19.287
01:03:28.554 : en:01:03:28.554
01:06:47.712 : en:01:06:47.712
01:14:30.049 : en:01:14:30.049
01:21:14.077 : en:01:21:14.077
01:28:26.843 : en:01:28:26.843
01:38:16.182 : en:01:38:16.182

Скриншоты

[Профиль] [ЛС]
Показать сообщения:    

Текущее время: Сегодня 02:44

Часовой пояс: GMT



Вы не можете начинать темы
Вы не можете отвечать на сообщения
Вы не можете редактировать свои сообщения
Вы не можете удалять свои сообщения
Вы не можете голосовать в опросах
Вы не можете прикреплять файлы к сообщениям
Вы не можете скачивать файлы