Девчата (Юрий Чулюкин) [1961, СССР, мелодрама, комедия, BDRip 720p]

 
Автор Сообщение

TorrentFilm ®

Пол:

Стаж: 2 года

Сообщений: 7741



Награды: Нет

Торрент-статистика

Создавать темы 01-Янв-2016 00:06

[Цитировать]

Девчата- Страна: СССР
Жанр: мелодрама, комедия
Год выпуска: 1961
Продолжительность: 01:36:02-Субтитры: русские (Full)-Режиссер: Юрий Чулюкин
В ролях: Надежда Румянцева (Тося), Николай Рыбников (Илья), Люсьена Овчинникова (Катя), Станислав Хитров (Филя), Инна Макарова (Надя), Светлана Дружинина (Анфиса), Нина Меньшикова (Вера), Николай Погодин (Саша), Михаил Пуговкин (комендант), Анатолий Адоскин (Дементьев), Виктор Байков (Ксан Ксаныч), Роман Филиппов (Вася)
Описание: В сибирский поселок приехала юная повариха Тося Кислицына - наивная и эксцентричная девчонка. Она сует свой нос во все дела, каждому стремится помочь. Местный красавец Илья на спор заводит с Тосей роман, сопровождающийся массой комичных ситуаций…

-Источник: HQFans
Качество: BDRip/720p (by HQFans)
Контейнер: MKV
Видео: 1280x546, AVC, 23,976 fps, 6 000 kbps
Аудио №1: русский / AC3 / 5.1 / 48 kHz / 640 kbps / 16 bit
Аудио №2: русский / AC3 / 1 / 48 kHz / 256 kbps / 16 bit
Навигация по главам: 16 шт.

Source vs. Rip HQFans
Sample

MEDIA iNFO

General
Unique ID : 180250629592748116312127717618009892968 (0x879B022D3C2E48C0B8B9C9DA4369E868)
Complete name : Девчата [1961.BDRip.720p.Sub]-HQFans.mkv
Format : Matroska
Format version : Version 2
File size : 4.63 GiB
Duration : 1h 36mn
Overall bit rate : 6 897 Kbps
Movie name : HQFans
Encoded date : UTC 2012-06-11 19:45:37
Writing application : mkvmerge v5.6.0 ('Kenya Kane') built on May 27 2012 16:44:04
Writing library : libebml v1.2.3 + libmatroska v1.3.0
Video
ID : 1
Format : AVC
Format/Info : Advanced Video Codec
Format profile : High@L4.1
Format settings, CABAC : Yes
Format settings, ReFrames : 11 frames
Codec ID : V_MPEG4/ISO/AVC
Duration : 1h 36mn
Bit rate : 6 000 Kbps
Width : 1 280 pixels
Height : 546 pixels
Display aspect ratio : 2.35:1
Frame rate : 23.976 fps
Color space : YUV
Chroma subsampling : 4:2:0
Bit depth : 8 bits
Scan type : Progressive
Bits/(Pixel*Frame) : 0.358
Stream size : 3.93 GiB (85%)
Title : Девчата [1961, BDRip/720p]|| ZUNE@HQFans
Writing library : x264 core 125 r2200 999b753
Encoding settings : cabac=1 / ref=11 / deblock=1:-3:-3 / analyse=0x3:0x113 / me=umh / subme=11 / psy=1 / psy_rd=1.10:0.00 / mixed_ref=1 / me_range=32 / chroma_me=1 / trellis=2 / 8x8dct=1 / cqm=0 / deadzone=21,11 / fast_pskip=0 / chroma_qp_offset=-2 / threads=12 / lookahead_threads=2 / sliced_threads=0 / nr=0 / decimate=0 / interlaced=0 / bluray_compat=0 / constrained_intra=0 / bframes=8 / b_pyramid=2 / b_adapt=2 / b_bias=0 / direct=3 / weightb=1 / open_gop=0 / weightp=2 / keyint=240 / keyint_min=24 / scenecut=40 / intra_refresh=0 / rc_lookahead=40 / rc=2pass / mbtree=0 / bitrate=6000 / ratetol=1.0 / qcomp=0.60 / qpmin=0 / qpmax=69 / qpstep=4 / cplxblur=20.0 / qblur=0.5 / vbv_maxrate=50000 / vbv_bufsize=50000 / nal_hrd=none / ip_ratio=1.30 / pb_ratio=1.20 / aq=1:1.00
Language : English
Default : Yes
Forced : No
Color primaries : BT.709-5, BT.1361, IEC 61966-2-4, SMPTE RP177
Transfer characteristics : BT.709-5, BT.1361
Matrix coefficients : BT.709-5, BT.1361, IEC 61966-2-4 709, SMPTE RP177
Audio #1
ID : 2
Format : AC-3
Format/Info : Audio Coding 3
Mode extension : CM (complete main)
Codec ID : A_AC3
Duration : 1h 36mn
Bit rate mode : Constant
Bit rate : 640 Kbps
Channel(s) : 6 channels
Channel positions : Front: L C R, Side: L R, LFE
Sampling rate : 48.0 KHz
Bit depth : 16 bits
Compression mode : Lossy
Stream size : 440 MiB (9%)
Title : Original [AC3 5.1@640kbps]
Language : Russian
Default : Yes
Forced : No
Audio #2
ID : 3
Format : AC-3
Format/Info : Audio Coding 3
Mode extension : CM (complete main)
Codec ID : A_AC3
Duration : 1h 36mn
Bit rate mode : Constant
Bit rate : 256 Kbps
Channel(s) : 1 channel
Channel positions : Front: C
Sampling rate : 48.0 KHz
Bit depth : 16 bits
Compression mode : Lossy
Stream size : 176 MiB (4%)
Title : Original [AC3 1.0@256kbps]
Language : Russian
Default : No
Forced : No
Text
ID : 4
Format : UTF-8
Codec ID : S_TEXT/UTF8
Codec ID/Info : UTF-8 Plain Text
Title : Full
Language : Russian
Default : No
Forced : No
Menu
00:00:00.000 : ru:Глава 1
00:12:34.753 : ru:Глава 2
00:20:29.561 : ru:Глава 3
00:26:55.822 : ru:Глава 4
00:34:21.851 : ru:Глава 5
00:39:25.905 : ru:Глава 6
00:44:19.198 : ru:Глава 7
00:50:27.858 : ru:Глава 8
00:55:28.366 : ru:Глава 9
01:07:08.649 : ru:Глава 10
01:11:37.418 : ru:Глава 11
01:17:02.868 : ru:Глава 12
01:20:46.925 : ru:Глава 13
01:24:41.117 : ru:Глава 14
01:27:56.145 : ru:Глава 15
01:33:03.286 : ru:Глава 16

x264.log

---[NoImage] raw [info]: 1280x546p 1:1 @ 24000/1001 fps (cfr)---[NoImage] x264 [info]: using SAR=1/1---[NoImage] x264 [info]: using cpu capabilities: MMX2 SSE2Fast SSSE3 FastShuffle SSE4.2 AVX---[NoImage] x264 [info]: profile High, level 4.1---[NoImage]---[NoImage] x264 [info]: frame I:889 Avg QP:18.44 size:122098---[NoImage] x264 [info]: frame P:27668 Avg QP:19.70 size: 55094---[NoImage] x264 [info]: frame B:109614 Avg QP:19.85 size: 24529---[NoImage] x264 [info]: consecutive B-frames: 1.3% 1.3% 5.5% 13.6% 13.0% 64.1% 1.0% 0.1% 0.0%---[NoImage] x264 [info]: mb I I16..4: 0.6% 79.1% 20.2%---[NoImage] x264 [info]: mb P I16..4: 0.1% 11.2% 1.7% P16..4: 28.8% 38.7% 18.7% 0.0% 0.0% skip: 0.7%---[NoImage] x264 [info]: mb B I16..4: 0.0% 1.9% 0.4% B16..8: 32.8% 26.4% 8.2% direct:10.6% skip:19.8% L0:34.6% L1:44.0% BI:21.4%---[NoImage] x264 [info]: 8x8 transform intra:84.3% inter:48.5%---[NoImage] x264 [info]: direct mvs spatial:99.6% temporal:0.4%---[NoImage] x264 [info]: coded y,uvDC,uvAC intra: 94.6% 0.0% 0.0% inter: 47.5% 0.0% 0.0%---[NoImage] x264 [info]: i16 v,h,dc,p: 42% 12% 6% 40%---[NoImage] x264 [info]: i8 v,h,dc,ddl,ddr,vr,hd,vl,hu: 12% 8% 12% 9% 12% 12% 12% 11% 13%---[NoImage] x264 [info]: i4 v,h,dc,ddl,ddr,vr,hd,vl,hu: 39% 5% 4% 6% 10% 10% 9% 8% 8%---[NoImage] x264 [info]: i8c dc,h,v,p: 57% 43% 0% 0%---[NoImage] x264 [info]: Weighted P-Frames: Y:15.2% UV:0.0%---[NoImage] x264 [info]: ref P L0: 41.1% 15.0% 18.3% 6.1% 5.2% 3.3% 3.4% 1.8% 1.9% 1.6% 1.8% 0.5% 0.0%---[NoImage] x264 [info]: ref B L0: 85.6% 7.9% 2.3% 1.4% 0.8% 0.7% 0.5% 0.4% 0.3% 0.2%---[NoImage] x264 [info]: ref B L1: 97.9% 2.1%---[NoImage] x264 [info]: kb/s:5999.25---[NoImage] encoded 138171 frames, 11.89 fps, 5999.25 kb/s
[Профиль] [ЛС]
Показать сообщения:    

Текущее время: Сегодня 08:11

Часовой пояс: GMT



Вы не можете начинать темы
Вы не можете отвечать на сообщения
Вы не можете редактировать свои сообщения
Вы не можете удалять свои сообщения
Вы не можете голосовать в опросах
Вы не можете прикреплять файлы к сообщениям
Вы не можете скачивать файлы