Девчата (Юрий Чулюкин)[1961, комедия, BDRemux] [1080p]

 
Автор Сообщение

sergej644 ®

Пол:

Стаж: 4 года 11 месяцев

Сообщений: 6043

Откуда: Soviet Union



Награды: Нет

Торрент-статистика

Создавать темы 23-Июл-2014 18:24

[Цитировать]

-Девчата (1961) BDRemux- Год выпуска: 1961
Производство: СССР / Мосфильм
Жанр: Мелодрама, комедия
Перевод: Не требуется (Русский язык)
Субтитры: Вшитые отключаемые
Язык субтитров: Русский, английский
Режиссер: Юрий Чулюкин
Сценарий: Борис Бедный
Актеры: Надежда Румянцева, Николай Рыбников, Люсьена Овчинникова, Станислав Хитров, Инна Макарова, Светлана Дружинина, Нина Меньшикова, Николай Погодин, Михаил Пуговкин, Анатолий Адоскин
Описание фильма:
В сибирский поселок приехала юная повариха Тося Кислицына — наивная и эксцентричная девчонка. Она сует свой нос во все дела, каждому стремится помочь. Местный красавец Илья на спор заводит с Тосей роман, сопровождающийся массой комичных ситуаций…

Дата мировой премьеры: 7 марта 1962
Дата выхода DVD релиза: 11 января 2011, «Парадиз Медиа»
Дата выхода Blu-Ray релиза: 8 мая 2012, «Парадиз Медиа»
Возраст: 0+ (для любой зрительской аудитории)
Продолжительность: 01:36:02
Качество видео: BDRemux
Видео: MPEG4_AVC/H.264, 1920x1080, ~17998 kbps, 23.976 fps
Аудио 1: DTS-HD MA 5.1, 3620 kbps, 48 kHz [Русский]
Аудио 2: AC3 5.1, 448 kbps, 48 kHz [Русский]
Аудио 3: AC3 1.0, 192 kbps, 48 kHz [Русский]

Отчёт MediaInfo

Полное имя                               : D:\Девчата.(1961).BRemux.[1080p].mkv
Формат                                   : Matroska
Версия формата                           : Version 2
Размер файла                             : 14,9 Гбайт
Продолжительность                        : 1 ч. 36 м.
Режим общего битрейта                    : Переменный
Общий поток                              : 22,3 Мбит/сек
Название фильма                          : Девчата (1961) / Lelya_K for NNM-Club
Дата кодирования                         : UTC 2014-03-10 15:06:34
Программа кодирования                    : mkvmerge v5.7.0 ('The Whirlwind') built on Aug  7 2012 14:11:40
Библиотека кодирования                   : libebml v1.2.3 + libmatroska v1.3.0
Attachment                               : Yes
Видео
Идентификатор                            : 1
Формат                                   : AVC
Формат/Информация                        : Advanced Video Codec
Профиль формата                          : [url=mailto:High@L4.1]High@L4.1[/url]
Параметр CABAC формата                   : Да
Параметр ReFrames формата                : 4 кадра
Идентификатор кодека                     : V_MPEG4/ISO/AVC
Продолжительность                        : 1 ч. 36 м.
Вид битрейта                             : Переменный
Битрейт                                  : 19,6 Мбит/сек
Максимальный битрейт                     : 23,0 Мбит/сек
Ширина                                   : 1920 пикселей
Высота                                   : 1080 пикселей
Соотношение сторон                       : 16:9
Режим частоты кадров                     : Постоянный
Частота кадров                           : 23,976 кадра/сек
Стандарт вещания                         : NTSC
Цветовое пространство                    : YUV
Субдискретизация насыщенности            : 4:2:0
Битовая глубина                          : 8 бит
Тип развёртки                            : Прогрессивная
Бит/(Пиксели*Кадры)                      : 0.395
Размер потока                            : 13,2 Гбайт (88%)
Заголовок                                : Девчата.(1961).BRemux.[1080p]
Язык                                     : Russian
Default                                  : Да
Forced                                   : Нет
Основные цвета                           : BT.709
Характеристики трансфера                 : BT.709
Коэффициенты матрицы                     : BT.709
Аудио #1
Идентификатор                            : 2
Формат                                   : DTS
Формат/Информация                        : Digital Theater Systems
Профиль формата                          : MA / Core
Идентификатор кодека                     : A_DTS
Продолжительность                        : 1 ч. 36 м.
Вид битрейта                             : Переменный
Битрейт                                  : 1561 Кбит/сек / 1510 Кбит/сек
Каналы                                   : 6 каналов
Расположение каналов                     : Front: L C R, Side: L R, LFE
Частота                                  : 48,0 КГц
Битовая глубина                          : 24 бит
Метод сжатия                             : Без потерь / Lossy
Заголовок                                : DTS-HD MA 5.1 / 3620 kbps
Язык                                     : Russian
Default                                  : Да
Forced                                   : Нет
Аудио #2
Идентификатор                            : 3
Формат                                   : AC-3
Формат/Информация                        : Audio Coding 3
Расширение режима                        : CM (complete main)
Параметр Endianness формата              : Big
Идентификатор кодека                     : A_AC3
Продолжительность                        : 1 ч. 36 м.
Вид битрейта                             : Постоянный
Битрейт                                  : 448 Кбит/сек
Каналы                                   : 6 каналов
Расположение каналов                     : Front: L C R, Side: L R, LFE
Частота                                  : 48,0 КГц
Битовая глубина                          : 16 бит
Метод сжатия                             : С потерями
Размер потока                            : 308 Мбайт (2%)
Заголовок                                : AC3 5.1 / 448 kbps
Язык                                     : Russian
Default                                  : Нет
Forced                                   : Нет
Аудио #3
Идентификатор                            : 4
Формат                                   : AC-3
Формат/Информация                        : Audio Coding 3
Расширение режима                        : CM (complete main)
Параметр Endianness формата              : Big
Идентификатор кодека                     : A_AC3
Продолжительность                        : 1 ч. 36 м.
Вид битрейта                             : Постоянный
Битрейт                                  : 192 Кбит/сек
Каналы                                   : 1 канал
Расположение каналов                     : Front: C
Частота                                  : 48,0 КГц
Битовая глубина                          : 16 бит
Метод сжатия                             : С потерями
Размер потока                            : 132 Мбайт (1%)
Заголовок                                : AC3 1.0 / 192 kbps
Язык                                     : Russian
Default                                  : Нет
Forced                                   : Нет
Текст #1
Идентификатор                            : 5
Формат                                   : UTF-8
Идентификатор кодека                     : S_TEXT/UTF8
Идентификатор кодека/Информация          : UTF-8 Plain Text
Заголовок                                : Full
Язык                                     : Russian
Default                                  : Нет
Forced                                   : Нет
Текст #2
Идентификатор                            : 6
Формат                                   : UTF-8
Идентификатор кодека                     : S_TEXT/UTF8
Идентификатор кодека/Информация          : UTF-8 Plain Text
Заголовок                                : Full
Язык                                     : English
Default                                  : Нет
Forced                                   : Нет
Меню
00:00:00.000                             : ru:Chapter 1
00:12:34.753                             : ru:Chapter 2
00:20:29.561                             : ru:Chapter 3
00:26:55.822                             : ru:Chapter 4
00:34:21.851                             : ru:Chapter 5
00:39:25.905                             : ru:Chapter 6
00:44:19.198                             : ru:Chapter 7
00:50:27.858                             : ru:Chapter 8
00:55:28.366                             : ru:Chapter 9
01:07:08.649                             : ru:Chapter 10
01:11:37.418                             : ru:Chapter 11
01:17:02.868                             : ru:Chapter 12
01:20:46.925                             : ru:Chapter 13
01:24:41.117                             : ru:Chapter 14
01:27:56.145                             : ru:Chapter 15
01:33:03.286                             : ru:Chapter 16

Дополнительно

Полная реставрация изображения и звука. Исходные киноматериалы подготовлены Госфильмофондом России. Покадровая цифровая реставрация изображения, ремастеринг звука и авторинг проведены объединением «Крупный план».
Скриншоты:

--
[Профиль] [ЛС]
Показать сообщения:    

Текущее время: Сегодня 18:33

Часовой пояс: GMT



Вы не можете начинать темы
Вы не можете отвечать на сообщения
Вы не можете редактировать свои сообщения
Вы не можете удалять свои сообщения
Вы не можете голосовать в опросах
Вы не можете прикреплять файлы к сообщениям
Вы не можете скачивать файлы