Девушка средних лет [01-04 из 04] (2014) SATRip от Files-x

 
Автор Сообщение

Белочка ®

Пол:

Стаж: 5 лет 6 месяцев

Сообщений: 2082



Награды: 1 (Подробнее)

Girls (Количество: 1)
Торрент-статистика

Создавать темы 24-Дек-2014 17:30

[Цитировать]

Информация о фильме
Оригинальное название: Девушка средних лет
Год выпуска: 2014
Жанр: Мелодрама
Режиссер: Артур Румынский
В ролях: Эльвира Болгова, Александр Никитин, Елена Ручкина, Халима Искандерова, Олег Масленников-Войтов
О фильме: Ксюше Кузнецовой почти 40 лет. Свою жизнь она по привычке откладывает на потом: никак не может решиться усыновить Павлика, которого уже давно навещает в детском доме, выгнать обнаглевшего вечного жениха Вадика, поставить на место подруг, бесцеремонно вмешивающихся в её жизнь, и призвать к порядку бандита Ваху, чей ресторан отравляет жизнь всей округе. Но узнав о смертельном диагнозе, Ксюша понимает, что никакого "потом" у неё нет, и начинает жить полной жизнью…
Выпущено: Россия, Марс Медиа Энтертейнмент
Продолжительность: 4 х 00:44:00
Перевод: не требуется
Файл
Кодек: XviD
Качество: SATRip
Видео: 720x400 (1.80:1), 25 fps, XviD build 73 ~1548 kbps avg, 0.22 bit/pixel
Аудио: 48 kHz, AC3 Dolby Digital, 2/0 (L,R) ch, ~192.00 kbps avg

MediaInfo

General
Complete name : Y:раздачиДевушка.средних.лет.2014.SATRip.RG.Russkie.serialy.&.Files-x1.Девушка.средних.лет.2014.SATRip.RG.Russkie.serialy.&.Files-x.avi
Format : AVI
Format/Info : Audio Video Interleave
File size : 550 MiB
Duration : 43mn 46s
Overall bit rate : 1 758 Kbps
Writing application : Lavf53.19.0
Video
ID : 0
Format : MPEG-4 Visual
Format profile : Advanced Simple@L5
Format settings, BVOP : 1
Format settings, QPel : No
Format settings, GMC : No warppoints
Format settings, Matrix : Custom
Codec ID : XVID
Codec ID/Hint : XviD
Duration : 43mn 46s
Bit rate : 1 555 Kbps
Width : 720 pixels
Height : 400 pixels
Display aspect ratio : 16:9
Frame rate : 25.000 fps
Color space : YUV
Chroma subsampling : 4:2:0
Bit depth : 8 bits
Scan type : Progressive
Compression mode : Lossy
Bits/(Pixel*Frame) : 0.216
Stream size : 487 MiB (88%)
Writing library : XviD 73
Audio
ID : 1
Format : AC-3
Format/Info : Audio Coding 3
Mode extension : CM (complete main)
Format settings, Endianness : Big
Codec ID : 2000
Duration : 43mn 46s
Bit rate mode : Constant
Bit rate : 192 Kbps
Channel(s) : 2 channels
Channel positions : Front: L R
Sampling rate : 48.0 KHz
Bit depth : 16 bits
Compression mode : Lossy
Stream size : 60.1 MiB (11%)
Alignment : Aligned on interleaves
Interleave, duration : 32 ms (0.80 video frame)

Скриншоты

Релиз группа
Отдельная громадная благодарность Media-Art-Club за созданный постер к раздаче.
[Профиль] [ЛС]
Показать сообщения:    

Текущее время: Сегодня 16:06

Часовой пояс: GMT



Вы не можете начинать темы
Вы не можете отвечать на сообщения
Вы не можете редактировать свои сообщения
Вы не можете удалять свои сообщения
Вы не можете голосовать в опросах
Вы не можете прикреплять файлы к сообщениям
Вы не можете скачивать файлы