Девушка напротив / Девушка по соседству / The Girl Next Door (Грегори Уилсон / Gregory Wilson) [2007, США, триллер, драма, криминал, BDRip-AVC] MVO + AVO (Алексеев) + Original (Eng) + Subs (Eng)

 
Автор Сообщение

TorrentFilm ®

Пол:

Стаж: 2 года

Сообщений: 7741



Награды: Нет

Торрент-статистика

Создавать темы 13-Фев-2015 00:01

[Цитировать]

Девушка напротив / Девушка по соседству / The Girl Next Door«In this town murder became the neighborhood game»- Страна: США
Жанр: триллер, драма, криминал
Год выпуска: 2007
Продолжительность: 01:31:09-Перевод №1: Профессиональный (двухголосый закадровый)
Перевод №2: Авторский (одноголосый закадровый) - Алексеев
Оригинальная аудиодорожка: English
Cубтитры: English (full)
Навигация по главам: присутствует - 16 глав-Режиссер: Грегори Уилсон / Gregory Wilson
В ролях: Блайт Оффарт, Дэниэл Манче, Бланш Бэйкер, Грант Шоу, Грэхэм Патрик Мартин, Бенжамин Росс Каплан, Остин Уильямс, Уильям Этертон, Кевин Чэмберлин, Дин Фолкенберри-Описание: Подросток Дэвид Морган, во время ловли раков, знакомится со своей новой соседкой — 16-ти летней Меган, которая, со своей 10-ти летней сестрой Сьюзан, живет в семье Чендлеров. Миссис Чендлер, которую дети зовут «Руфь», не самая хорошая мать. У нее трое сыновей, которым она разрешает пить пиво, и иногда заводит с ними непристойные разговоры.
Меган и Сьюзан непросто живется в доме «Тетушки Руфь». Они вынуждены терпеть побои и унижения со стороны членов семьи. Мэг не выдерживает и докладывает об этом шерифу, за что Руфь решает её проучить. Дэвид застал Руфь и её сыновей за истязаниями Мэг. Он не мог уснуть всю ночь и решил помочь ей…-
Download sample-Качество видео: BDRip-AVC | исх. Blu-ray Disc - thx:
Формат: MKV-Видео: 1 152x648 (16:9), 23.976 fps, H.264 ~2594 kbps avg, 0.141 bit/pixel
Аудио №1: 48.0 kHz, AC3 Dolby Digital, 3/2 (L,C,R,l,r) + LFE ch, ~448 kbps | Профессиональный (двухголосый закадровый)
Аудио №2: 48.0 kHz, AC3 Dolby Digital, 3/2 (L,C,R,l,r) + LFE ch, ~448 kbps | Авторский (одноголосый закадровый) - Алексеев
Аудио №3: 48.0 kHz, AC3 Dolby Digital, 3/2 (L,C,R,l,r) + LFE ch, ~448 kbps | English-

MediaInfo

General
Unique ID : 241147356009733299040092330826933055308 (0xB56B4A98DB1A3AD7983AADAC2EA9AF4C)
Complete name : D:\Фильмы\Рипы\The Girl Next Door.2007.BDRip-AVC.eFK tRuAVC.mkv
Format : Matroska
Format version : Version 4 / Version 2
File size : 2.51 GiB
Duration : 1h 31mn
Overall bit rate : 3 941 Kbps
Movie name : Девушка напротив / Девушка по соседству / The Girl Next Door (2007) - Release for rutracker
Encoded date : UTC 2015-02-12 09:41:45
Writing application : mkvmerge v7.6.0 ('Garden of Dreams') 64bit built on Feb 8 2015 13:04:34
Writing library : libebml v1.3.1 + libmatroska v1.4.2
Attachements : cover.png
DURATION : 01:26:31.205000000
NUMBER_OF_FRAMES : 909
NUMBER_OF_BYTES : 32228
_STATISTICS_WRITING_APP : mkvmerge v7.6.0 ('Garden of Dreams') 64bit built on Feb 8 2015 13:04:34
_STATISTICS_WRITING_DATE_UT : 2015-02-12 09:41:45
_STATISTICS_TAGS : BPS DURATION NUMBER_OF_FRAMES NUMBER_OF_BYTES
Video
ID : 1
Format : AVC
Format/Info : Advanced Video Codec
Format profile : High@L4.1
Format settings, CABAC : Yes
Format settings, ReFrames : 10 frames
Codec ID : V_MPEG4/ISO/AVC
Duration : 1h 31mn
Bit rate : 2 519 Kbps
Width : 1 152 pixels
Height : 648 pixels
Display aspect ratio : 16:9
Frame rate mode : Constant
Frame rate : 23.976 fps
Color space : YUV
Chroma subsampling : 4:2:0
Bit depth : 8 bits
Scan type : Progressive
Bits/(Pixel*Frame) : 0.141
Stream size : 1.60 GiB (64%)
Title : eFK tRuAVC
Writing library : x264 core 144 r2525kMod 40bb568
Encoding settings : cabac=1 / ref=10 / deblock=1:-2:-2 / analyse=0x3:0x133 / me=umh / subme=11 / psy=1 / fade_compensate=0.00 / psy_rd=1.10:0.05 / mixed_ref=1 / me_range=32 / chroma_me=1 / trellis=2 / 8x8dct=1 / cqm=0 / deadzone=21,11 / fast_pskip=0 / chroma_qp_offset=-3 / threads=12 / lookahead_threads=3 / sliced_threads=0 / nr=0 / decimate=1 / interlaced=0 / bluray_compat=0 / constrained_intra=0 / fgo=0 / bframes=16 / b_pyramid=2 / b_adapt=2 / b_bias=0 / direct=3 / weightb=1 / open_gop=0 / weightp=2 / keyint=250 / keyint_min=23 / scenecut=40 / intra_refresh=0 / rc_lookahead=60 / rc=crf / mbtree=0 / crf=19.4000 / qcomp=0.65 / qpmin=0 / qpmax=69 / qpstep=4 / vbv_maxrate=50000 / vbv_bufsize=62500 / crf_max=0.0 / nal_hrd=none / filler=0 / ip_ratio=1.40 / pb_ratio=1.30 / aq=3:0.80
Language : English
Default : Yes
Forced : No
Color primaries : BT.709
Transfer characteristics : BT.709
Matrix coefficients : BT.709
Color range : Limited
DURATION : 01:31:09.756000000
NUMBER_OF_FRAMES : 131143
NUMBER_OF_BYTES : 1773665944
_STATISTICS_WRITING_APP : mkvmerge v7.6.0 ('Garden of Dreams') 64bit built on Feb 8 2015 13:04:34
_STATISTICS_WRITING_DATE_UT : 2015-02-12 09:41:45
_STATISTICS_TAGS : BPS DURATION NUMBER_OF_FRAMES NUMBER_OF_BYTES
Audio #1
ID : 2
Format : AC-3
Format/Info : Audio Coding 3
Mode extension : CM (complete main)
Format settings, Endianness : Big
Codec ID : A_AC3
Duration : 1h 31mn
Bit rate mode : Constant
Bit rate : 448 Kbps
Channel(s) : 6 channels
Channel positions : Front: L C R, Side: L R, LFE
Sampling rate : 48.0 KHz
Bit depth : 16 bits
Compression mode : Lossy
Stream size : 292 MiB (11%)
Title : DVO
Language : Russian
Default : Yes
Forced : No
Audio #2
ID : 3
Format : AC-3
Format/Info : Audio Coding 3
Mode extension : CM (complete main)
Format settings, Endianness : Big
Codec ID : A_AC3
Duration : 1h 31mn
Bit rate mode : Constant
Bit rate : 448 Kbps
Channel(s) : 6 channels
Channel positions : Front: L C R, Side: L R, LFE
Sampling rate : 48.0 KHz
Bit depth : 16 bits
Compression mode : Lossy
Stream size : 292 MiB (11%)
Title : AVO (Алексеев)
Language : Russian
Default : No
Forced : No
Audio #3
ID : 4
Format : AC-3
Format/Info : Audio Coding 3
Mode extension : CM (complete main)
Format settings, Endianness : Big
Codec ID : A_AC3
Duration : 1h 31mn
Bit rate mode : Constant
Bit rate : 448 Kbps
Channel(s) : 6 channels
Channel positions : Front: L C R, Side: L R, LFE
Sampling rate : 48.0 KHz
Bit depth : 16 bits
Compression mode : Lossy
Stream size : 292 MiB (11%)
Language : English
Default : No
Forced : No
Text
ID : 5
Format : UTF-8
Codec ID : S_TEXT/UTF8
Codec ID/Info : UTF-8 Plain Text
Title : full
Language : English
Default : No
Forced : No
Menu
00:00:00.000 : :Chapter 01
00:06:14.374 : :Chapter 02
00:11:09.669 : :Chapter 03
00:17:18.037 : :Chapter 04
00:23:14.393 : :Chapter 05
00:29:28.767 : :Chapter 06
00:35:11.109 : :Chapter 07
00:40:36.434 : :Chapter 08
00:46:51.809 : :Chapter 09
00:53:03.180 : :Chapter 10
00:58:57.534 : :Chapter 11
01:04:26.863 : :Chapter 12
01:12:26.342 : :Chapter 13
01:16:16.572 : :Chapter 14
01:22:25.941 : :Chapter 15
01:27:06.220 : :Chapter 16

x264 log

x264 [info]: frame I:884 Avg QP:16.67 size: 87871
x264 [info]: frame P:28933 Avg QP:17.98 size: 27615
x264 [info]: frame B:101326 Avg QP:20.58 size: 8853
x264 [info]: consecutive B-frames: 1.5% 0.9% 4.7% 39.0% 22.2% 26.4% 2.7% 0.8% 0.3% 0.1% 0.1% 0.1% 0.1% 0.1% 0.2% 0.2% 0.5%
x264 [info]: mb I I16..4: 5.7% 85.3% 9.0%
x264 [info]: mb P I16..4: 0.4% 8.5% 0.6% P16..4: 32.7% 37.4% 11.4% 1.1% 0.1% skip: 7.8%
x264 [info]: mb B I16..4: 0.0% 0.7% 0.1% B16..8: 35.5% 14.8% 2.0% direct: 4.6% skip:42.4% L0:40.3% L1:50.0% BI: 9.6%
x264 [info]: 8x8 transform intra:87.7% inter:62.1%
x264 [info]: direct mvs spatial:100.0% temporal:0.0%
x264 [info]: coded y,uvDC,uvAC intra: 92.7% 75.9% 45.5% inter: 21.8% 12.7% 0.8%
x264 [info]: i16 v,h,dc,p: 49% 11% 7% 33%
x264 [info]: i8 v,h,dc,ddl,ddr,vr,hd,vl,hu: 10% 6% 7% 10% 15% 14% 13% 12% 12%
x264 [info]: i4 v,h,dc,ddl,ddr,vr,hd,vl,hu: 13% 6% 9% 8% 15% 14% 13% 10% 11%
x264 [info]: i8c dc,h,v,p: 31% 30% 22% 17%
x264 [info]: Weighted P-Frames: Y:4.1% UV:1.8%
x264 [info]: ref P L0: 44.8% 9.4% 20.3% 6.3% 5.8% 4.0% 3.7% 1.8% 1.9% 1.8% 0.2% 0.0%
x264 [info]: ref B L0: 81.1% 9.8% 3.5% 1.8% 1.4% 1.1% 0.8% 0.4% 0.2%
x264 [info]: ref B L1: 95.3% 4.7%
x264 [info]: kb/s:2594.14
x264 [total]: encoded 131143 frames, 8.64 fps, 2594.14 kb/s, duration 4:12:55.23

Comparison

Source

Encode
[Профиль] [ЛС]

Создавать темы 06-Авг-2015 22:44 (спустя 5 месяцев 21 день)

Топик был перенесен из форума Фильмы до 2014 года в форум Фильмы до 2012 года
sergej644
 
Кто просматривает тему:

Форум Тема Автор Размер
Pop Божья коровка - Девушка денег дай! (2016) MP3 достали все 143 MB
Фильмы (HD Rips | 720p, 1080p) В спорте только девушки (2014) BDRip 1080p от MediaClub | Лицензия sergej644 7.62 GB
Фильмы (HD DVD, Blu-ray и BDRemux) В спорте только девушки (Евгений Невский) [2014, Россия, комедия, Blu-ray Disc 1080p] sergej644 19.23 GB
Фильмы (DVD 5/9) В спорте только девушки (Евгений Невский) [2014, Россия, комедия, DVD5 (Сжатый)] TorrentFilm 4.36 GB
Фильмы (DVD 5/9) В спорте только девушки (Евгений Невский) [2014, Россия, комедия, DVD9] R5 Original Rus TorrentFilm 6.24 GB
Фильмы 2015 года Дева на троне / Девушка-король / The girl king (Мика Каурисмяки / Mika Kaurismaki) [2015, Швеция, Финляндия, Канада, исторический, биография, DVDRip] Sub Rus + Original Eng TorrentFilm 1.36 GB
Фильмы (HD DVD, Blu-ray и BDRemux) Девушка без комплексов / Trainwreck (2015) BD-Remux | iTunes | Театральная Версия BOSS 22.57 GB
Фильмы (HD DVD, Blu-ray и BDRemux) Девушка без комплексов / Trainwreck (2015) BDRemux 1080p | Лицензия | Театральная Версия BOSS 26.81 GB
Показать сообщения:    

Текущее время: Сегодня 02:16

Часовой пояс: GMT



Вы не можете начинать темы
Вы не можете отвечать на сообщения
Вы не можете редактировать свои сообщения
Вы не можете удалять свои сообщения
Вы не можете голосовать в опросах
Вы не можете прикреплять файлы к сообщениям
Вы не можете скачивать файлы