Девушка, которая слишком много знала / La ragazza che sapeva troppo (1963) BDRemux 1080p | P

 
Автор Сообщение

Russian Mafia ®

Пол:

Стаж: 1 год 8 месяцев

Сообщений: 4252



Награды: 10 (Подробнее)

Top Releaser 4 (Количество: 1) Top Releaser 5 (Количество: 1) Top Releaser 3 (Количество: 1)
Торрент-статистика

Создавать темы 28-Мар-2016 11:19

[Цитировать]

Информация о фильме
Название: Девушка, которая слишком много знала
Оригинальное название: La ragazza che sapeva troppo
Год выхода: 1963
Жанр: триллер, детектив
Режиссер: Марио Бава
В ролях: Летиция Роман, Джон Сэксон, Валентина Кортезе, Титти Томайно, Луиджи Бонос, Мило Куэсада, Роберт Бьюкэнэн, Марта Мелокко, Густаво Де Нардо, Люсия Модуньо, Джон Бенеди, Франко Моричи, Вирджиния Доро, Данте ДиПаоло, Джим Долен, Адриана Фаччетти, Дэфидд Авар, Тиберио Мурджа, Пегги Натан, Франко Рессель, Джон Стэйси
О фильме: Американская студентка Нора, страстная любительница детективов, отправляется на каникулы в Рим и сразу же попадает в водоворот неприятностей.
В аэропорту ей подсовывают контрабанду, тетушка, у которой она должна гостить, умирает, на улице на неё нападают, и, вдобавок ко всему, она видит, как мужчина убивает женщину ножом. Полиция принимает рассказ Норы за галлюцинацию, но вскоре она узнает, что на этом месте и именно так действительно была убита девушка… десять лет назад.

Страна: Италия
Продолжительность: 01:25:38
Перевод 1: Профессиональный (многоголосый закадровый) 5-й канал
Перевод 2: Профессиональный (многоголосый закадровый) Film Prestige
Оригинальная аудиодорожка: итальянский
Файл
Качество: BDRemux 1080p
Видео: MPEG-4 AVC Video / 29962 kbps / 1080p / 23,976 fps / 16:9 / High Profile 4.1
Аудио 1: Russian Dolby Digital Audio 192 kbps 2.0 / 48 kHz | 5-й канал
Аудио 2: Russian Dolby Digital Audio 192 kbps 2.0 / 48 kHz | Film Prestige
Аудио 3: Italian / DTS-HD Master Audio / 2.0 / 48 kHz / 1353 kbps / 24-bit (DTS Core: 2.0 / 48 kHz / 384 kbps / 24-bit)
Субтитры: английские
Семпл

Скриншоты

MediaInfo

General
Unique ID : 203870535486024895575009578287529117671 (0x99600972BE0BD6BA85994FD06CB6C7E7)
Complete name : Девушка, которая слишком много знала (1963. La ragazza che sapeva troppo).mkv
Format : Matroska
Format version : Version 2
File size : 19.4 GiB
Duration : 1h 28mn
Overall bit rate mode : Variable
Overall bit rate : 31.4 MbpsEncoded date : UTC 2016-03-27 18:55:07
Writing application : mkvmerge v4.9.1 ('Ich will') сборка от Jul 11 2011 23:53:15
Writing library : libebml v1.2.1 + libmatroska v1.1.1
Cover : Yes
Attachments : Cover.jpg
Video
ID : 1
Format : AVC
Format/Info : Advanced Video Codec
Format profile : High@L4.1
Format settings, CABAC : Yes
Format settings, ReFrames : 3 frames
Codec ID : V_MPEG4/ISO/AVC
Duration : 1h 28mn
Bit rate mode : Variable
Nominal bit rate : 30.0 Mbps
Maximum bit rate : 30.0 Mbps
Width : 1 920 pixels
Height : 1 080 pixels
Display aspect ratio : 16:9
Frame rate mode : Constant
Frame rate : 23.976 (24000/1001) fps
Color space : YUV
Chroma subsampling : 4:2:0
Bit depth : 8 bits
Scan type : Progressive
Bits/(Pixel*Frame) : 0.603
Title : La ragazza che sapeva troppo 1963 1080p GBR Blu-ray AVC LPCM 2.0-ESiR
Language : Italian
Default : Yes
Forced : No
Color range : Limited
Color primaries : BT.709
Transfer characteristics : BT.709
Matrix coefficients : BT.709
Audio #1
ID : 2
Format : AC-3
Format/Info : Audio Coding 3
Mode extension : CM (complete main)
Format settings, Endianness : Big
Codec ID : A_AC3
Duration : 1h 28mn
Bit rate mode : Constant
Bit rate : 192 Kbps
Channel(s) : 2 channels
Channel positions : Front: L R
Sampling rate : 48.0 KHz
Frame rate : 31.250 fps (1536 spf)
Compression mode : Lossy
Stream size : 122 MiB (1%)
Title : MVO [5-й канал]
Language : Russian
Default : Yes
Forced : No
Audio #2
ID : 3
Format : AC-3
Format/Info : Audio Coding 3
Mode extension : CM (complete main)
Format settings, Endianness : Big
Codec ID : A_AC3
Duration : 1h 28mn
Bit rate mode : Constant
Bit rate : 192 Kbps
Channel(s) : 2 channels
Channel positions : Front: L R
Sampling rate : 48.0 KHz
Frame rate : 31.250 fps (1536 spf)
Compression mode : Lossy
Stream size : 122 MiB (1%)
Title : MVO [Film Prestige]
Language : Russian
Default : No
Forced : No
Audio #3
ID : 4
Format : DTS
Format/Info : Digital Theater Systems
Format profile : MA / Core
Mode : 16
Format settings, Endianness : Big
Codec ID : A_DTS
Duration : 1h 28mn
Bit rate mode : Variable / Constant
Bit rate : Unknown / 384 Kbps
Channel(s) : 2 channels
Channel positions : Front: L R
Sampling rate : 48.0 KHz
Frame rate : 93.750 fps (512 spf)
Bit depth : 24 bits
Compression mode : Lossless / Lossy
Language : Italian
Default : No
Forced : No
Text
ID : 5
Format : UTF-8
Codec ID : S_TEXT/UTF8
Codec ID/Info : UTF-8 Plain Text
Language : English
Default : No
Forced : No
Menu
00:00:00.000 : en:00:00:00.000
00:07:01.880 : en:00:07:01.880
00:13:23.553 : en:00:13:23.553
00:21:07.475 : en:00:21:07.475
00:27:22.850 : en:00:27:22.850
00:33:23.126 : en:00:33:23.126
00:40:52.784 : en:00:40:52.784
00:49:18.164 : en:00:49:18.164
00:54:39.485 : en:00:54:39.485
01:03:51.494 : en:01:03:51.494
01:09:18.946 : en:01:09:18.946
01:15:51.672 : en:01:15:51.672
[Профиль] [ЛС]
Кто просматривает тему:

Форум Тема Автор Размер
Pop Божья коровка - Девушка денег дай! (2016) MP3 достали все 143 MB
Фильмы (HD Rips | 720p, 1080p) В спорте только девушки (2014) BDRip 1080p от MediaClub | Лицензия sergej644 7.62 GB
Фильмы (HD DVD, Blu-ray и BDRemux) В спорте только девушки (Евгений Невский) [2014, Россия, комедия, Blu-ray Disc 1080p] sergej644 19.23 GB
Фильмы (DVD 5/9) В спорте только девушки (Евгений Невский) [2014, Россия, комедия, DVD5 (Сжатый)] TorrentFilm 4.36 GB
Фильмы (DVD 5/9) В спорте только девушки (Евгений Невский) [2014, Россия, комедия, DVD9] R5 Original Rus TorrentFilm 6.24 GB
Фильмы 2015 года Дева на троне / Девушка-король / The girl king (Мика Каурисмяки / Mika Kaurismaki) [2015, Швеция, Финляндия, Канада, исторический, биография, DVDRip] Sub Rus + Original Eng TorrentFilm 1.36 GB
Фильмы (HD DVD, Blu-ray и BDRemux) Девушка без комплексов / Trainwreck (2015) BD-Remux | iTunes | Театральная Версия BOSS 22.57 GB
Фильмы (HD DVD, Blu-ray и BDRemux) Девушка без комплексов / Trainwreck (2015) BDRemux 1080p | Лицензия | Театральная Версия BOSS 26.81 GB
Показать сообщения:    

Текущее время: Сегодня 18:37

Часовой пояс: GMT



Вы не можете начинать темы
Вы не можете отвечать на сообщения
Вы не можете редактировать свои сообщения
Вы не можете удалять свои сообщения
Вы не можете голосовать в опросах
Вы не можете прикреплять файлы к сообщениям
Вы не можете скачивать файлы