Девушка и смерть / Het Meisje en de Dood (2012) HDTVRip 1080p от MediaClub

 
Автор Сообщение

sergej644 ®

Пол:

Стаж: 4 года 11 месяцев

Сообщений: 6042

Откуда: Soviet Union



Награды: Нет

Торрент-статистика

Создавать темы 25-Янв-2015 03:41

[Цитировать]

Информация о фильме
Оригинальное название: Девушка и смерть
Год выхода: 2012
Жанр: Драма
Режиссер: Йос Стеллинг
В ролях: Сильвия Хукс, Леонид Бичевин, Сергей Маковецкий, Максим Ковалевский, Джим ван дер Вауде, Анри Гарсен, Ева-Мария Курц, Светлана Светличная
О фильме:
Николай возвращается в заброшенный отель, где пятьдесят лет назад он встретил свою единственную любовь. Охваченный воспоминаниями, он заново переживает трагическую историю своей юности, являясь одновременно рассказчиком и героем повествования. Действие разворачивается в трех временных пластах — в конце XIX века (времена юности героя), в пятидесятые годы XX века и в наши дни

Страна: Россия, Нидерланды, Германия
Студия: Algemene Vereniging Radio Omroep (AVRO), Jos Stelling Filmprodukties BV, Ma.ja.de. Fiction, Твинди
Продолжительность: 02:02:15
Язык: Русский
Файл
Кодек: MPEG-4 AVC
Качество: HDTVRip 1080p
Видео: 5650 Кбит/с, 1920x808, 25.000 кадр/с
Звук: Русский (АС3, 6 ch, 448 Кбит/с)
Семпл

Скриншоты

MI

Общее
Полное имя : Devushka.i.smert2012.x264.HDTVRip(1080p).MediaClub.mkv
Формат : Matroska
Версия формата : Version 2
Размер файла : 5,21 Гбайт
Продолжительность : 2 ч. 2 м.
Общий поток : 6099 Кбит/сек
Название фильма : MediaClub
Дата кодирования : UTC 2014-10-12 13:18:57
Программа кодирования : mkvmerge v5.4.0 ('Piper') built on Mar 10 2012 13:34:39
Библиотека кодирования : libebml v1.2.3 + libmatroska v1.3.0
Видео
Идентификатор : 1
Формат : AVC
Формат/Информация : Advanced Video Codec
Профиль формата : High@L4.1
Параметр CABAC формата : Да
Параметр ReFrames формата : 5 кадров
Идентификатор кодека : V_MPEG4/ISO/AVC
Продолжительность : 2 ч. 2 м.
Битрейт : 5650 Кбит/сек
Ширина : 1920 пикселей
Высота : 808 пикселей
Соотношение сторон : 2,40:1
Режим частоты кадров : Постоянный
Частота кадров : 25,000 кадров/сек
Цветовое пространство : YUV
Субдискретизация насыщенности : 4:2:0
Битовая глубина : 8 бит
Тип развёртки : Прогрессивная
Бит/(Пиксели*Кадры) : 0.146
Размер потока : 4,72 Гбайт (91%)
Библиотека кодирования : x264 core 125 r2208 d9d2288
Настройки программы : cabac=1 / ref=5 / deblock=1:-3:-2 / analyse=0x3:0x133 / me=umh / subme=10 / psy=1 / psy_rd=1.00:0.20 / mixed_ref=1 / me_range=48 / chroma_me=1 / trellis=2 / 8x8dct=1 / cqm=0 / deadzone=21,11 / fast_pskip=0 / chroma_qp_offset=-3 / threads=6 / lookahead_threads=1 / sliced_threads=0 / nr=0 / decimate=0 / interlaced=0 / bluray_compat=0 / constrained_intra=0 / bframes=8 / b_pyramid=2 / b_adapt=2 / b_bias=0 / direct=3 / weightb=1 / open_gop=0 / weightp=2 / keyint=250 / keyint_min=25 / scenecut=40 / intra_refresh=0 / rc=2pass / mbtree=0 / bitrate=5650 / ratetol=1.0 / qcomp=0.60 / qpmin=0 / qpmax=69 / qpstep=4 / cplxblur=20.0 / qblur=0.5 / ip_ratio=1.40 / pb_ratio=1.30 / aq=1:1.00
Default : Да
Forced : Нет
Аудио
Идентификатор : 2
Формат : AC-3
Формат/Информация : Audio Coding 3
Расширение режима : CM (complete main)
Параметр Endianness формата : Big
Идентификатор кодека : A_AC3
Продолжительность : 2 ч. 2 м.
Вид битрейта : Постоянный
Битрейт : 448 Кбит/сек
Каналы : 6 каналов
Расположение каналов : Front: L C R, Side: L R, LFE
Частота : 48,0 КГц
Битовая глубина : 16 бит
Метод сжатия : С потерями
Размер потока : 392 Мбайт (7%)
Язык : Russian
Default : Да
Forced : Нет
[Профиль] [ЛС]
Кто просматривает тему:

Форум Тема Автор Размер
Pop Божья коровка - Девушка денег дай! (2016) MP3 достали все 143 MB
Фильмы (HD Rips | 720p, 1080p) В спорте только девушки (2014) BDRip 1080p от MediaClub | Лицензия sergej644 7.62 GB
Фильмы (HD DVD, Blu-ray и BDRemux) В спорте только девушки (Евгений Невский) [2014, Россия, комедия, Blu-ray Disc 1080p] sergej644 19.23 GB
Фильмы (DVD 5/9) В спорте только девушки (Евгений Невский) [2014, Россия, комедия, DVD5 (Сжатый)] TorrentFilm 4.36 GB
Фильмы (DVD 5/9) В спорте только девушки (Евгений Невский) [2014, Россия, комедия, DVD9] R5 Original Rus TorrentFilm 6.24 GB
Фильмы 2015 года Дева на троне / Девушка-король / The girl king (Мика Каурисмяки / Mika Kaurismaki) [2015, Швеция, Финляндия, Канада, исторический, биография, DVDRip] Sub Rus + Original Eng TorrentFilm 1.36 GB
Фильмы (HD DVD, Blu-ray и BDRemux) Девушка без комплексов / Trainwreck (2015) BD-Remux | iTunes | Театральная Версия BOSS 22.57 GB
Фильмы (HD DVD, Blu-ray и BDRemux) Девушка без комплексов / Trainwreck (2015) BDRemux 1080p | Лицензия | Театральная Версия BOSS 26.81 GB
Показать сообщения:    

Текущее время: Сегодня 10:29

Часовой пояс: GMT



Вы не можете начинать темы
Вы не можете отвечать на сообщения
Вы не можете редактировать свои сообщения
Вы не можете удалять свои сообщения
Вы не можете голосовать в опросах
Вы не можете прикреплять файлы к сообщениям
Вы не можете скачивать файлы