Девушка из Дании / The Danish Girl (2015) BDRip 720p | Лицензия

 
Автор Сообщение

достали все ®

Пол:

Стаж: 1 год 8 месяцев

Сообщений: 6515



Награды: 12 (Подробнее)

Top Releaser 4 (Количество: 1) Mega Releaser 1 (Количество: 1) Mega Seeder 1 (Количество: 1)
Торрент-статистика

Создавать темы 22-Апр-2016 08:53

[Цитировать]

Информация о фильме
Название: Девушка из Дании
Оригинальное название: The Danish Girl
Год выхода: 2015
Жанр: драма, мелодрама, биография
Режиссер: Том Хупер
В ролях: Эдди Редмэйн, Алисия Викандер, Маттиас Шонартс, Бен Уишоу, Эмбер Хёрд, Себастьян Кох, Эмиральд Феннел, Адриан Шиллер, Генри Петтигрю, Туссе Сильберг
О фильме:
Действие происходит в 1920-х годах в Копенгагене. Иллюстратор и художник Герда Вегенер просит своего мужа Эйнара Вегенера попозировать в качестве женской модели. Портреты приобретают популярность и Герда продолжает писать картины со своим мужем в качестве женщины. Эйнару нравится собственная женская внешность и он начинает жить под именем Лили Эльбе. Впоследствии Эльбе становится первым человеком, прошедшим хирургическую коррекцию пола.

Страна: Великобритания, США, Бельгия, Дания, Германия
Студия: Artémis Productions, Pretty Pictures, ReVision Pictures, Working Title Films
Продолжительность: 01:59:38
Перевод: Профессиональный (дублированный) Blu-ray EUR
Файл
Формат: Matroska
Видео: 1280x694 at 23.976 fps, x264@L4.1, ~5000 kbps avg
Аудио#1: Russian: 48 kHz, DTS, 3/2 (L,C,R,l,r) + LFE ch, ~768.00 kbps avg |Дубляж, Blu-ray EUR|
Аудио#2: English: 48 kHz, DTS, 3/2 (L,C,R,l,r) + LFE ch, ~1509.00 kbps avg
Субтитры: Russian, English, Romanian
***Сохранены оригинальные главы как на Blu-ray.
***Видеоряд - VietHD, сборка рипа - Womanizer0.

MI

Общее
Уникальный идентификатор : 204724408813120881354913370938931380321 (0x9A047CA75081C9BE9803539678138061)
Полное имя : The.Danish.Girl.2015.720p.BluRay.DTS.x264.Rus.Eng.Subs-VietHD.mkv
Формат : Matroska
Версия формата : Version 4 / Version 2
Размер файла : 6,26 Гбайт
Продолжительность : 1 ч. 59 м.
Общий поток : 7489 Кбит/сек
Название фильма : released by aldershot
Дата кодирования : UTC 2016-04-22 06:50:15
Программа кодирования : mkvmerge v6.9.1 ('Blue Panther') 64bit built on Apr 18 2014 18:23:38
Библиотека кодирования : libebml v1.3.0 + libmatroska v1.4.1
Видео
Идентификатор : 1
Формат : AVC
Формат/Информация : Advanced Video Codec
Профиль формата : High@L4.1
Параметр CABAC формата : Да
Параметр ReFrames формата : 9 кадров
Идентификатор кодека : V_MPEG4/ISO/AVC
Продолжительность : 1 ч. 59 м.
Битрейт : 5063 Кбит/сек
Ширина : 1280 пикселей
Высота : 694 пикселя
Соотношение сторон : 1,85:1
Режим частоты кадров : Постоянный
Частота кадров : 23,976 кадра/сек
Цветовое пространство : YUV
Субдискретизация насыщенности : 4:2:0
Битовая глубина : 8 бит
Тип развёртки : Прогрессивная
Бит/(Пиксели*Кадры) : 0.238
Размер потока : 4,23 Гбайт (68%)
Заголовок : VietHD
Библиотека кодирования : x264 core 148 r2665kMod a01e339
Настройки программы : cabac=1 / ref=9 / deblock=1:-3:-3 / analyse=0x3:0x133 / me=umh / subme=10 / psy=1 / fade_compensate=0.00 / psy_rd=1.10:0.00 / mixed_ref=1 / me_range=24 / chroma_me=1 / trellis=2 / 8x8dct=1 / cqm=0 / deadzone=21,11 / fast_pskip=0 / chroma_qp_offset=-2 / threads=12 / lookahead_threads=3 / sliced_threads=0 / nr=0 / decimate=0 / interlaced=0 / bluray_compat=0 / constrained_intra=0 / fgo=0 / bframes=11 / b_pyramid=2 / b_adapt=2 / b_bias=0 / direct=3 / weightb=1 / open_gop=0 / weightp=2 / keyint=250 / keyint_min=23 / scenecut=40 / intra_refresh=0 / rc_lookahead=60 / rc=crf / mbtree=0 / crf=16.2000 / qcomp=0.65 / qpmin=0 / qpmax=69 / qpstep=4 / vbv_maxrate=62500 / vbv_bufsize=78125 / crf_max=0.0 / nal_hrd=none / filler=0 / ip_ratio=1.30 / pb_ratio=1.20 / aq=3:0.70
Язык : English
Default : Да
Forced : Нет
Цветовой диапазон : Limited
Коэффициенты матрицы : BT.709
Аудио #1
Идентификатор : 2
Формат : DTS
Формат/Информация : Digital Theater Systems
Режим : 16
Параметр Endianness формата : Big
Идентификатор кодека : A_DTS
Продолжительность : 1 ч. 59 м.
Вид битрейта : Постоянный
Битрейт : 768 Кбит/сек
Каналы : 6 каналов
Расположение каналов : Front: L C R, Side: L R, LFE
Частота : 48,0 КГц
Битовая глубина : 24 бит
Метод сжатия : С потерями
Размер потока : 657 Мбайт (10%)
Заголовок : DTS 5.1 @ 768 Kbps, Дубляж, Blu-Ray CEE
Язык : Russian
Default : Да
Forced : Нет
Аудио #2
Идентификатор : 3
Формат : DTS
Формат/Информация : Digital Theater Systems
Режим : 16
Параметр Endianness формата : Big
Идентификатор кодека : A_DTS
Продолжительность : 1 ч. 59 м.
Вид битрейта : Постоянный
Битрейт : 1509 Кбит/сек
Каналы : 6 каналов
Расположение каналов : Front: L C R, Side: L R, LFE
Частота : 48,0 КГц
Битовая глубина : 24 бит
Метод сжатия : С потерями
Размер потока : 1,26 Гбайт (20%)
Заголовок : DTS 5.1 @ 1536 Kbps, Original
Язык : English
Default : Нет
Forced : Нет
Текст #1
Идентификатор : 4
Формат : UTF-8
Идентификатор кодека : S_TEXT/UTF8
Идентификатор кодека/Информация : UTF-8 Plain Text
Заголовок : full
Язык : Romanian
Default : Нет
Forced : Нет
Текст #2
Идентификатор : 5
Формат : UTF-8
Идентификатор кодека : S_TEXT/UTF8
Идентификатор кодека/Информация : UTF-8 Plain Text
Заголовок : full
Язык : Russian
Default : Нет
Forced : Нет
Текст #3
Идентификатор : 6
Формат : UTF-8
Идентификатор кодека : S_TEXT/UTF8
Идентификатор кодека/Информация : UTF-8 Plain Text
Заголовок : full
Язык : English
Default : Нет
Forced : Нет
Текст #4
Идентификатор : 7
Формат : UTF-8
Идентификатор кодека : S_TEXT/UTF8
Идентификатор кодека/Информация : UTF-8 Plain Text
Заголовок : SDH
Язык : English
Default : Нет
Forced : Нет
Меню
00:00:00.000 : en:00:00:00.000
00:06:45.905 : en:00:06:45.905
00:13:42.280 : en:00:13:42.280
00:17:45.898 : en:00:17:45.898
00:21:26.535 : en:00:21:26.535
00:26:36.094 : en:00:26:36.094
00:34:03.625 : en:00:34:03.625
00:40:21.544 : en:00:40:21.544
00:47:31.974 : en:00:47:31.974
00:53:03.889 : en:00:53:03.889
00:58:06.483 : en:00:58:06.483
01:06:50.757 : en:01:06:50.757
01:10:18.464 : en:01:10:18.464
01:15:03.999 : en:01:15:03.999
01:22:16.265 : en:01:22:16.265
01:27:29.077 : en:01:27:29.077
01:33:22.263 : en:01:33:22.263
01:41:36.924 : en:01:41:36.924
01:47:23.228 : en:01:47:23.228
01:52:44.216 : en:01:52:44.216

Скриншоты

[Профиль] [ЛС]
Кто просматривает тему:

Форум Тема Автор Размер
Pop Божья коровка - Девушка денег дай! (2016) MP3 достали все 143 MB
Фильмы (HD Rips | 720p, 1080p) В спорте только девушки (2014) BDRip 1080p от MediaClub | Лицензия sergej644 7.62 GB
Фильмы (HD DVD, Blu-ray и BDRemux) В спорте только девушки (Евгений Невский) [2014, Россия, комедия, Blu-ray Disc 1080p] sergej644 19.23 GB
Фильмы (DVD 5/9) В спорте только девушки (Евгений Невский) [2014, Россия, комедия, DVD5 (Сжатый)] TorrentFilm 4.36 GB
Фильмы (DVD 5/9) В спорте только девушки (Евгений Невский) [2014, Россия, комедия, DVD9] R5 Original Rus TorrentFilm 6.24 GB
Фильмы 2015 года Дева на троне / Девушка-король / The girl king (Мика Каурисмяки / Mika Kaurismaki) [2015, Швеция, Финляндия, Канада, исторический, биография, DVDRip] Sub Rus + Original Eng TorrentFilm 1.36 GB
Фильмы (HD DVD, Blu-ray и BDRemux) Девушка без комплексов / Trainwreck (2015) BD-Remux | iTunes | Театральная Версия BOSS 22.57 GB
Фильмы (HD DVD, Blu-ray и BDRemux) Девушка без комплексов / Trainwreck (2015) BDRemux 1080p | Лицензия | Театральная Версия BOSS 26.81 GB
Показать сообщения:    

Текущее время: Сегодня 02:40

Часовой пояс: GMT



Вы не можете начинать темы
Вы не можете отвечать на сообщения
Вы не можете редактировать свои сообщения
Вы не можете удалять свои сообщения
Вы не можете голосовать в опросах
Вы не можете прикреплять файлы к сообщениям
Вы не можете скачивать файлы