Девушка из Дании / The Danish Girlt (2015) BDRip | D | Лицензия

 
Автор Сообщение

Russian Mafia ®

Пол:

Стаж: 1 год 8 месяцев

Сообщений: 4253



Награды: 10 (Подробнее)

Top Releaser 2 (Количество: 1) За внесенный вклад в развитие сайта (Количество: 1) Top Releaser 4 (Количество: 1)
Торрент-статистика

Создавать темы 21-Апр-2016 17:36

[Цитировать]

Информация о фильме
Название: Девушка из Дании
Оригинальное название: The Danish Girl
Год выхода: 2015
Жанр: Драма, мелодрама, биография
Режиссер: Том Хупер
В ролях: Эдди Редмэйн, Алисия Викандер, Туссе Сильберг, Адриан Шиллер, Эмбер Хёрд, Эмиральд Феннел, Генри Петтигрю, Клаус Буе, Питер Крэг, Анджела Каррен, Ричард Диксон, Бен Уишоу, Пип Торренс, Пол Бигли, Нэнси Крэйн, Николя Слоун, Соня Каллингфорд, Маттиас Шонартс, Виктория Эмсли, Александр Девриент
О фильме:
Действие происходит в 1920-х годах в Копенгагене. Иллюстратор и художник Герда Вегенер просит своего мужа Эйнара Вегенера попозировать в качестве женской модели. Портреты приобретают популярность и Герда продолжает писать картины со своим мужем в качестве женщины. Эйнару нравится собственная женская внешность и он начинает жить под именем Лили Эльбе. Впоследствии Эльбе становится первым человеком, прошедшим хирургическую коррекцию пола.

Страна: Великобритания, США, Бельгия, Дания, Германия
Студия: Artémis Productions, Pretty Pictures, ReVision Pictures, Working Title Films
Продолжительность: 01:59:38
Перевод: Профессиональный (полное дублирование)[BD CEE]
Файл
Качество: BDRip (исх. The Danish Girl (2015) Blu-ray CEE 1080p AVC DTS 5.1)
Кодек: XviD
Видео: 704x384 (1,85:1), 23,976 fps, Xvid ~1294 kbps avg, 0.200 bit/pixel
Звук: 48 kHz, AC3, 6 ch, ~448.00 kbps avg | русский | Профессиональный (полное дублирование)[BD CEE]
Субтитры: Отсутствуют
Семпл

Инфо-файл

Общее
Полное имя : D:TorrentsЗавершенныеDanish Girl.2015.D.BDRip.avi
Формат : AVI
Формат/Информация : Audio Video Interleave
Размер файла : 1,46 Гбайт
Продолжительность : 1 ч. 59 м.
Общий поток : 1751 Кбит/сек
Программа кодирования : VirtualDubMod 1.5.10.3 (build 2550/release)
Библиотека кодирования : VirtualDubMod build 2550/release
Видео
Идентификатор : 0
Формат : MPEG-4 Visual
Профиль формата : Advanced Simple@L5
Параметр BVOP формата : 2
Параметр QPel формата : Нет
Параметр GMC формата : Без точки перехода
Параметр матрицы формата : Default (MPEG)
Идентификатор кодека : XVID
Идентификатор кодека/Подсказка : XviD
Продолжительность : 1 ч. 59 м.
Битрейт : 1294 Кбит/сек
Ширина : 704 пикселя
Высота : 384 пикселя
Соотношение сторон : 1,85:1
Частота кадров : 23,976 (24000/1001) кадра/сек
Цветовое пространство : YUV
Субдискретизация насыщенности : 4:2:0
Битовая глубина : 8 бит
Тип развёртки : Прогрессивная
Метод сжатия : С потерями
Бит/(Пиксели*Кадры) : 0.200
Размер потока : 1,08 Гбайт (74%)
Библиотека кодирования : XviD 73
Аудио
Идентификатор : 1
Формат : AC-3
Формат/Информация : Audio Coding 3
Расширение режима : CM (complete main)
Параметр Endianness формата : Big
Идентификатор кодека : 2000
Продолжительность : 1 ч. 59 м.
Вид битрейта : Постоянный
Битрейт : 448 Кбит/сек
Каналы : 6 каналов
Расположение каналов : Front: L C R, Side: L R, LFE
Частота : 48,0 КГц
Частота кадров : 31,250 кадров/сек (1536 spf)
Метод сжатия : С потерями
Размер потока : 383 Мбайт (26%)
Выравнивание : Разделение по промежуткам
Продолжительность промежутка : 42 мс. (1,00 видеокадр)
Время предзагрузки промежутка : 500 мс.

Скриншоты

[Профиль] [ЛС]
Кто просматривает тему:

Форум Тема Автор Размер
Pop Божья коровка - Девушка денег дай! (2016) MP3 достали все 143 MB
Фильмы (HD Rips | 720p, 1080p) В спорте только девушки (2014) BDRip 1080p от MediaClub | Лицензия sergej644 7.62 GB
Фильмы (HD DVD, Blu-ray и BDRemux) В спорте только девушки (Евгений Невский) [2014, Россия, комедия, Blu-ray Disc 1080p] sergej644 19.23 GB
Фильмы (DVD 5/9) В спорте только девушки (Евгений Невский) [2014, Россия, комедия, DVD5 (Сжатый)] TorrentFilm 4.36 GB
Фильмы (DVD 5/9) В спорте только девушки (Евгений Невский) [2014, Россия, комедия, DVD9] R5 Original Rus TorrentFilm 6.24 GB
Фильмы 2015 года Дева на троне / Девушка-король / The girl king (Мика Каурисмяки / Mika Kaurismaki) [2015, Швеция, Финляндия, Канада, исторический, биография, DVDRip] Sub Rus + Original Eng TorrentFilm 1.36 GB
Фильмы (HD DVD, Blu-ray и BDRemux) Девушка без комплексов / Trainwreck (2015) BD-Remux | iTunes | Театральная Версия BOSS 22.57 GB
Фильмы (HD DVD, Blu-ray и BDRemux) Девушка без комплексов / Trainwreck (2015) BDRemux 1080p | Лицензия | Театральная Версия BOSS 26.81 GB
Показать сообщения:    

Текущее время: Сегодня 10:50

Часовой пояс: GMT



Вы не можете начинать темы
Вы не можете отвечать на сообщения
Вы не можете редактировать свои сообщения
Вы не можете удалять свои сообщения
Вы не можете голосовать в опросах
Вы не можете прикреплять файлы к сообщениям
Вы не можете скачивать файлы