Девушка из Дании / The Danish Girl (2015) BDRip 720p | iTunes

 
Автор Сообщение

Russian Mafia ®

Пол:

Стаж: 1 год 8 месяцев

Сообщений: 4253



Награды: 10 (Подробнее)

Mega Seeder 4 (Количество: 1) Mega Seeder 5 (Количество: 1) Mega Seeder 2 (Количество: 1)
Торрент-статистика

Создавать темы 24-Мар-2016 17:57

[Цитировать]

Информация о фильме
Название: Девушка из Дании
Оригинальное название: The Danish Girl
Страна: Великобритания, Германия, США
Студия: Artmis Productions, Pretty Pictures, ReVision Pictures
Жанр: драма, биография
Год выпуска: 2015
Продолжительность: 01:59:38
Перевод: Профессиональный (дублированный) iTunes
Cубтитры: Rus, Eng
Оригинальная аудиодорожка: английский
Режиссер: Том Хупер / Tom Hooper
В ролях: Эдди Редмэйн, Алисия Викандер, Туссе Сильберг, Адриан Шиллер, Эмбер Хёрд Депп, Эмиральд Феннел, Генри Петтигрю, Клаус Буе, Питер Крэг, Анджела Каррен
Описание: Действие происходит в 1920-х годах в Копенгагене. Иллюстратор и художник Герда Вегенер просит своего мужа Эйнара Вегенера попозировать в качестве женской модели. Портреты приобретают популярность и Герда продолжает писать картины со своим мужем в качестве женщины. Эйнару нравится собственная женская внешность и он начинает жить под именем Лили Эльбе. Впоследствии Эльбе становится первым человеком, прошедшим хирургическую коррекцию пола.

Тип релиза: BDRip 720p
Контейнер: MKV
Видео: MPEG-4 AVC, 5400 Кбит/с, 1280x692, 23,976 fps
Аудио: Rus, AC3, 384 kb/s (6 ch), 48 kHz
Аудио 2: Eng, DTS, 1510 kb/s (6 ch), 48 kHz
Формат субтитров: softsub (SRT)

MediaInfo

x264 [info]: frame I:1471 Avg QP:12.42 size:141985
x264 [info]: frame P:33836 Avg QP:13.78 size: 51284
x264 [info]: frame B:136793 Avg QP:14.56 size: 21178
Format : Matroska
Format version : Version 4 / Version 2
File size : 6.09 GiB
Duration : 1h 59mn
Overall bit rate : 7 291 Kbps
Movie name : Девушка из Дании. (Tonik)
Encoded date : UTC 2016-03-24 17:40:54
Writing application : mkvmerge v7.1.0 ('Good Love') 64bit built on Jul 27 2014 13:06:55
Writing library : libebml v1.3.0 + libmatroska v1.4.1
DURATION : 01:59:27.200000000
NUMBER_OF_FRAMES : 223975
NUMBER_OF_BYTES : 344025600
_STATISTICS_WRITING_APP : mkvmerge v7.1.0 ('Good Love') 64bit built on Jul 27 2014 13:06:55
_STATISTICS_WRITING_DATE_UTC : 2016-03-24 17:40:54
_STATISTICS_TAGS : BPS DURATION NUMBER_OF_FRAMES NUMBER_OF_BYTES
Video
ID : 1
Format : AVC
Format/Info : Advanced Video Codec
Format profile : High@L4.1
Format settings, CABAC : Yes
Format settings, ReFrames : 9 frames
Codec ID : V_MPEG4/ISO/AVC
Duration : 1h 59mn
Bit rate : 5 400 Kbps
Width : 1 280 pixels
Height : 692 pixels
Display aspect ratio : 1.85:1
Frame rate mode : Constant
Frame rate : 23.976 fps
Color space : YUV
Chroma subsampling : 4:2:0
Bit depth : 8 bits
Scan type : Progressive
Bits/(Pixel*Frame) : 0.254
Stream size : 4.39 GiB (72%)
Writing library : x264 core 148 r2597 e86f3a1
Encoding settings : cabac=1 / ref=9 / deblock=1:-3:-3 / analyse=0x3:0x133 / me=umh / subme=11 / psy=1 / psy_rd=1.05:0.00 / mixed_ref=1 / me_range=32 / chroma_me=1 / trellis=2 / 8x8dct=1 / cqm=0 / deadzone=21,11 / fast_pskip=0 / chroma_qp_offset=-2 / threads=22 / lookahead_threads=3 / sliced_threads=0 / nr=0 / decimate=0 / interlaced=0 / bluray_compat=0 / constrained_intra=0 / bframes=8 / b_pyramid=2 / b_adapt=2 / b_bias=0 / direct=3 / weightb=1 / open_gop=0 / weightp=2 / keyint=240 / keyint_min=24 / scenecut=40 / intra_refresh=0 / rc=2pass / mbtree=0 / bitrate=5400 / ratetol=1.0 / qcomp=0.70 / qpmin=0 / qpmax=69 / qpstep=4 / cplxblur=20.0 / qblur=0.5 / ip_ratio=1.20 / pb_ratio=1.20 / aq=3:0.85
Language : English
Default : Yes
Forced : No
DURATION : 01:59:38.004000000
NUMBER_OF_FRAMES : 172100
NUMBER_OF_BYTES : 4841089567
_STATISTICS_WRITING_APP : mkvmerge v7.1.0 ('Good Love') 64bit built on Jul 27 2014 13:06:55
_STATISTICS_WRITING_DATE_UTC : 2016-03-24 17:40:54
_STATISTICS_TAGS : BPS DURATION NUMBER_OF_FRAMES NUMBER_OF_BYTES
Audio #1
ID : 2
Format : AC-3
Format/Info : Audio Coding 3
Mode extension : CM (complete main)
Format settings, Endianness : Big
Codec ID : A_AC3
Duration : 1h 59mn
Bit rate mode : Constant
Bit rate : 384 Kbps
Channel(s) : 6 channels
Channel positions : Front: L C R, Side: L R, LFE
Sampling rate : 48.0 KHz
Bit depth : 16 bits
Compression mode : Lossy
Stream size : 329 MiB (5%)
Language : Russian
Default : Yes
Forced : No
Audio #2
ID : 3
Format : DTS
Format/Info : Digital Theater Systems
Mode : 16
Format settings, Endianness : Big
Codec ID : A_DTS
Duration : 1h 59mn
Bit rate mode : Constant
Bit rate : 1 509 Kbps
Channel(s) : 6 channels
Channel positions : Front: L C R, Side: L R, LFE
Sampling rate : 48.0 KHz
Bit depth : 24 bits
Compression mode : Lossy
Stream size : 1.26 GiB (21%)
Language : English
Default : No
Forced : No
Text #1
ID : 4
Format : UTF-8
Codec ID : S_TEXT/UTF8
Codec ID/Info : UTF-8 Plain Text
Language : Russian
Default : No
Forced : No
Text #2
ID : 5
Format : UTF-8
Codec ID : S_TEXT/UTF8
Codec ID/Info : UTF-8 Plain Text
Language : English
Default : No
Forced : No
Menu
00:00:00.000 : en:00:00:00.000
00:06:45.905 : en:00:06:45.905
00:13:42.280 : en:00:13:42.280
00:17:45.898 : en:00:17:45.898
00:21:26.535 : en:00:21:26.535
00:26:36.094 : en:00:26:36.094
00:34:03.625 : en:00:34:03.625
00:40:21.544 : en:00:40:21.544
00:47:31.974 : en:00:47:31.974
00:53:03.889 : en:00:53:03.889
00:58:06.483 : en:00:58:06.483
01:06:50.757 : en:01:06:50.757
01:10:18.464 : en:01:10:18.464
01:15:03.999 : en:01:15:03.999
01:22:16.265 : en:01:22:16.265
01:27:29.077 : en:01:27:29.077
01:33:22.263 : en:01:33:22.263
01:41:36.924 : en:01:41:36.924
01:47:23.228 : en:01:47:23.228
01:52:44.216 : en:01:52:44.216

Скриншоты

[Профиль] [ЛС]
Кто просматривает тему:

Форум Тема Автор Размер
Pop Божья коровка - Девушка денег дай! (2016) MP3 достали все 143 MB
Фильмы (HD Rips | 720p, 1080p) В спорте только девушки (2014) BDRip 1080p от MediaClub | Лицензия sergej644 7.62 GB
Фильмы (HD DVD, Blu-ray и BDRemux) В спорте только девушки (Евгений Невский) [2014, Россия, комедия, Blu-ray Disc 1080p] sergej644 19.23 GB
Фильмы (DVD 5/9) В спорте только девушки (Евгений Невский) [2014, Россия, комедия, DVD5 (Сжатый)] TorrentFilm 4.36 GB
Фильмы (DVD 5/9) В спорте только девушки (Евгений Невский) [2014, Россия, комедия, DVD9] R5 Original Rus TorrentFilm 6.24 GB
Фильмы 2015 года Дева на троне / Девушка-король / The girl king (Мика Каурисмяки / Mika Kaurismaki) [2015, Швеция, Финляндия, Канада, исторический, биография, DVDRip] Sub Rus + Original Eng TorrentFilm 1.36 GB
Фильмы (HD DVD, Blu-ray и BDRemux) Девушка без комплексов / Trainwreck (2015) BD-Remux | iTunes | Театральная Версия BOSS 22.57 GB
Фильмы (HD DVD, Blu-ray и BDRemux) Девушка без комплексов / Trainwreck (2015) BDRemux 1080p | Лицензия | Театральная Версия BOSS 26.81 GB
Показать сообщения:    

Текущее время: Сегодня 16:54

Часовой пояс: GMT



Вы не можете начинать темы
Вы не можете отвечать на сообщения
Вы не можете редактировать свои сообщения
Вы не можете удалять свои сообщения
Вы не можете голосовать в опросах
Вы не можете прикреплять файлы к сообщениям
Вы не можете скачивать файлы