Девушка из Дании / The Danish Girl (2015) BDRip-AVC | iTunes

 
Автор Сообщение

Russian Mafia ®

Пол:

Стаж: 2 года 7 месяцев

Сообщений: 4249



Награды: 10 (Подробнее)

Top Releaser 5 (Количество: 1) Mega Seeder 5 (Количество: 1) Top Releaser 4 (Количество: 1)
Торрент-статистика

Создавать темы 24-Мар-2016 12:16

[Цитировать]

Информация о фильме
Название: Девушка из Дании
Оригинальное название: The Danish Girl
Год выпуска: 2015
Страна: Великобритания, США, Бельгия, Дания, Германия
Жанр: драма, мелодрама, биография-Перевод: Дубляж - [iTunes]
Субтитры: русские
Продолжительность: 01:59:38-Режиссер: Том Хупер
В ролях: Эдди Редмэйн (Einar Wegener / Lili Elbe), Алисия Викандер (Gerda Wegener), Маттиас Шонартс (Hans Axgil), Бен Уишоу (Henrik), Эмбер Хёрд (Ulla), Себастьян Кох (Warnekros), Эмиральд Феннел (Elsa), Адриан Шиллер (Rasmussen), Генри Петтигрю (Niels), Туссе Сильберг (Older Woman), Клаус Буе (Man at Window), Питер Крэг (Stage Doorman)-Описание:
Действие происходит в 1920-х годах в Копенгагене. Иллюстратор и художник Герда Вегенер просит своего мужа Эйнара Вегенера попозировать в качестве женской модели. Портреты приобретают популярность и Герда продолжает писать картины со своим мужем в качестве женщины. Эйнару нравится собственная женская внешность и он начинает жить под именем Лили Эльбе. Впоследствии Эльбе становится первым человеком, прошедшим хирургическую коррекцию пола.-Рейтинг:

MPAA: R - Лицам до 17 лет обязательно присутствие взрослого-Качество: BDRip-AVC
Формат: MKV
Видео: AVC, 1024x552 (1.855), 1745 kbps, 23,976 fps, 0,129 bpp
Аудио: русский / AC3 / 5.1 / 48 kHz / 384 kbps / 16 bit
Навигация по главам: есть-Релиз от: by schultz

ОтчетМедиаИнфо

General
Unique ID : 204220012905662418626085211692144805668 (0x99A35803EB8D0E7D98BEA61B72C84724)
Complete name : D:downloadThe.Danish.Girl.2015.BDRip-AVC by schultz R.G.Resident.mkv
Format : Matroska
Format version : Version 4 / Version 2
File size : 1.78 GiB
Duration : 1h 59mn
Overall bit rate : 2 129 Kbps
Encoded date : UTC 2016-03-24 10:47:04
Writing application : mkvmerge v6.7.0 ('Back to the Ground') 64bit built on Jan 8 2014 15:10:52
Writing library : libebml v1.3.0 + libmatroska v1.4.1
DURATION : 01:59:27.200000000
NUMBER_OF_FRAMES : 223975
NUMBER_OF_BYTES : 344025600
_STATISTICS_WRITING_APP : mkvmerge v8.3.0 ('Over the Horizon') 64bit
_STATISTICS_WRITING_DATE_UTC : 2016-03-23 23:27:22
_STATISTICS_TAGS : BPS DURATION NUMBER_OF_FRAMES NUMBER_OF_BYTES
Video
ID : 1
Format : AVC
Format/Info : Advanced Video Codec
Format profile : High@L4.1
Format settings, CABAC : Yes
Format settings, ReFrames : 12 frames
Codec ID : V_MPEG4/ISO/AVC
Duration : 1h 59mn
Bit rate : 1 745 Kbps
Width : 1 024 pixels
Height : 552 pixels
Display aspect ratio : 1.855
Frame rate : 23.976 fps
Color space : YUV
Chroma subsampling : 4:2:0
Bit depth : 8 bits
Scan type : Progressive
Bits/(Pixel*Frame) : 0.129
Stream size : 1.42 GiB (80%)
Writing library : x264 core 146 r2538 121396c
Encoding settings : cabac=1 / ref=12 / deblock=1:-3:-3 / analyse=0x3:0x113 / me=umh / subme=11 / psy=1 / psy_rd=1.00:0.00 / mixed_ref=1 / me_range=48 / chroma_me=1 / trellis=2 / 8x8dct=1 / cqm=0 / deadzone=21,11 / fast_pskip=0 / chroma_qp_offset=-2 / threads=12 / lookahead_threads=3 / sliced_threads=0 / nr=0 / decimate=1 / interlaced=0 / bluray_compat=0 / constrained_intra=0 / bframes=13 / b_pyramid=2 / b_adapt=2 / b_bias=0 / direct=3 / weightb=1 / open_gop=0 / weightp=2 / keyint=240 / keyint_min=23 / scenecut=40 / intra_refresh=0 / rc_lookahead=40 / rc=2pass / mbtree=1 / bitrate=1745 / ratetol=1.0 / qcomp=0.60 / qpmin=0 / qpmax=69 / qpstep=4 / cplxblur=20.0 / qblur=0.5 / vbv_maxrate=14000 / vbv_bufsize=14000 / nal_hrd=none / filler=0 / ip_ratio=1.40 / aq=1:1.00
Language : English
Default : Yes
Forced : No
Audio
ID : 2
Format : AC-3
Format/Info : Audio Coding 3
Mode extension : CM (complete main)
Codec ID : A_AC3
Duration : 1h 59mn
Bit rate mode : Constant
Bit rate : 384 Kbps
Channel(s) : 6 channels
Channel positions : Front: L C R, Side: L R, LFE
Sampling rate : 48.0 KHz
Bit depth : 16 bits
Compression mode : Lossy
Delay relative to video : 32ms
Stream size : 329 MiB (18%)
Language : Russian
Default : Yes
Forced : No
Text
ID : 3
Format : UTF-8
Codec ID : S_TEXT/UTF8
Codec ID/Info : UTF-8 Plain Text
Default : Yes
Forced : No
Menu
00:00:00.000 : en:00:00:00.000
00:06:45.905 : en:00:06:45.905
00:13:42.280 : en:00:13:42.280
00:17:45.898 : en:00:17:45.898
00:21:26.535 : en:00:21:26.535
00:26:36.094 : en:00:26:36.094
00:34:03.625 : en:00:34:03.625
00:40:21.544 : en:00:40:21.544
00:47:31.974 : en:00:47:31.974
00:53:03.889 : en:00:53:03.889
00:58:06.483 : en:00:58:06.483
01:06:50.757 : en:01:06:50.757
01:10:18.464 : en:01:10:18.464
01:15:03.999 : en:01:15:03.999
01:22:16.265 : en:01:22:16.265
01:27:29.077 : en:01:27:29.077
01:33:22.263 : en:01:33:22.263
01:41:36.924 : en:01:41:36.924
01:47:23.228 : en:01:47:23.228
01:52:44.216 : en:01:52:44.216

Скриншоты

[Профиль] [ЛС]
Показать сообщения:    

Текущее время: Сегодня 13:47

Часовой пояс: GMT



Вы не можете начинать темы
Вы не можете отвечать на сообщения
Вы не можете редактировать свои сообщения
Вы не можете удалять свои сообщения
Вы не можете голосовать в опросах
Вы не можете прикреплять файлы к сообщениям
Вы не можете скачивать файлы