Девушка в беде / The Girl Is in Trouble (2015) WEB-DL 720p | L2

 
Автор Сообщение

BOSS ®

Пол:

Стаж: 2 года 1 месяц

Сообщений: 3718

Откуда: ODESSA



Награды: 20 (Подробнее)

За внесенный вклад в развитие сайта (Количество: 1) Mega Seeder 1 (Количество: 1) Top Keeper 4 (Количество: 1)
Торрент-статистика

Создавать темы 12-Янв-2016 06:01

[Цитировать]

Информация о фильме
Название: Девушка в беде
Оригинальное название: The Girl Is in Trouble
Год выхода: 2015
Жанр: боевик, триллер, криминал
Режиссер: Джулиус Она
В ролях: Коламбус Шорт, Уилмер Вальдеррама, Алиция Бахледа, Джесси Спенсер, Мириам Колон, Пас де ла Уэрта, Карим Савинон, Майк Старр, Том Пелфри, Уасс М. Стивенс
О фильме: Фильм рассказывает историю бармена, который работает в одном из клубов Нью-Йорка. Он оказывается впутанным в таинственное убийство, в котором также подозреваются отчаявшаяся женщина, пропавший дилер наркотиков и потомок одной из преуспевающих инвестиционных фирм в городе.

Выпущено: США / CinemaStreet, Deerjen Films, Kings Crown Films, NVSBL Film, RCR Media Group, Toy Closet Films
Продолжительность: 01:34:38
Озвучивание: Любительское (двухголосное) [Parovoz Production]
Файл
Формат: MKV
Качество: WEB-DL 720p
Видео: MPEG-4 AVC, 3817 kb/s, 1280x532
Аудио: Russian: AC3, 192 kb/s (2 ch) / English: AC3, 384 kb/s (6 ch)
Субтитры: English

MI

Format : Matroska
Format version : Version 2
File size : 2.96 GiB
Duration : 1h 34mn
Overall bit rate : 4 482 Kbps
Encoded date : UTC 2016-01-12 01:09:05
Writing application : mkvmerge v7.8.0 ('River Man') 32bit built on Apr 3 2015 12:11:22
Writing library : libebml v1.3.1 + libmatroska v1.4.2
Video
ID : 1
Format : AVC
Format/Info : Advanced Video Codec
Format profile : Main@L3.1
Format settings, CABAC : No
Format settings, ReFrames : 2 frames
Codec ID : V_MPEG4/ISO/AVC
Duration : 1h 34mn
Bit rate : 3 817 Kbps
Width : 1 280 pixels
Height : 532 pixels
Display aspect ratio : 2.40:1
Frame rate mode : Constant
Frame rate : 23.976 fps
Color space : YUV
Chroma subsampling : 4:2:0
Bit depth : 8 bits
Scan type : Progressive
Bits/(Pixel*Frame) : 0.234
Stream size : 2.52 GiB (85%)
Language : English
Default : Yes
Forced : No
Color range : Limited
Color primaries : BT.709
Transfer characteristics : BT.709
Matrix coefficients : BT.709
Audio #1
ID : 2
Format : AC-3
Format/Info : Audio Coding 3
Mode extension : CM (complete main)
Format settings, Endianness : Big
Codec ID : A_AC3
Duration : 1h 34mn
Bit rate mode : Constant
Bit rate : 192 Kbps
Channel(s) : 2 channels
Channel positions : Front: L R
Sampling rate : 48.0 KHz
Bit depth : 16 bits
Compression mode : Lossy
Stream size : 130 MiB (4%)
Language : Russian
Default : Yes
Forced : No
Audio #2
ID : 3
Format : AC-3
Format/Info : Audio Coding 3
Mode extension : CM (complete main)
Format settings, Endianness : Big
Codec ID : A_AC3
Duration : 1h 34mn
Bit rate mode : Constant
Bit rate : 384 Kbps
Channel(s) : 6 channels
Channel positions : Front: L C R, Side: L R, LFE
Sampling rate : 48.0 KHz
Bit depth : 16 bits
Compression mode : Lossy
Stream size : 260 MiB (9%)
Language : English
Default : No
Forced : No
Text
ID : 4
Format : UTF-8
Codec ID : S_TEXT/UTF8
Codec ID/Info : UTF-8 Plain Text
Language : English
Default : No
Forced : No
Menu
00:00:00.000 : en:Chapter 01
00:10:42.000 : en:Chapter 02
00:21:50.000 : en:Chapter 03
00:33:05.000 : en:Chapter 04
00:42:57.000 : en:Chapter 05
00:51:20.000 : en:Chapter 06
01:02:11.000 : en:Chapter 07
01:11:18.000 : en:Chapter 08
01:22:06.000 : en:Chapter 09
01:30:17.000 : en:Chapter 10

Скриншоты



[Профиль] [ЛС]
Кто просматривает тему:

Форум Тема Автор Размер
Pop Божья коровка - Девушка денег дай! (2016) MP3 достали все 143 MB
Фильмы (HD Rips | 720p, 1080p) В спорте только девушки (2014) BDRip 1080p от MediaClub | Лицензия sergej644 7.62 GB
Фильмы (HD DVD, Blu-ray и BDRemux) В спорте только девушки (Евгений Невский) [2014, Россия, комедия, Blu-ray Disc 1080p] sergej644 19.23 GB
Фильмы (DVD 5/9) В спорте только девушки (Евгений Невский) [2014, Россия, комедия, DVD5 (Сжатый)] TorrentFilm 4.36 GB
Фильмы (DVD 5/9) В спорте только девушки (Евгений Невский) [2014, Россия, комедия, DVD9] R5 Original Rus TorrentFilm 6.24 GB
Фильмы 2015 года Дева на троне / Девушка-король / The girl king (Мика Каурисмяки / Mika Kaurismaki) [2015, Швеция, Финляндия, Канада, исторический, биография, DVDRip] Sub Rus + Original Eng TorrentFilm 1.36 GB
Фильмы (HD DVD, Blu-ray и BDRemux) Девушка без комплексов / Trainwreck (2015) BD-Remux | iTunes | Театральная Версия BOSS 22.57 GB
Фильмы (HD DVD, Blu-ray и BDRemux) Девушка без комплексов / Trainwreck (2015) BDRemux 1080p | Лицензия | Театральная Версия BOSS 26.81 GB
Показать сообщения:    

Текущее время: Сегодня 14:36

Часовой пояс: GMT



Вы не можете начинать темы
Вы не можете отвечать на сообщения
Вы не можете редактировать свои сообщения
Вы не можете удалять свои сообщения
Вы не можете голосовать в опросах
Вы не можете прикреплять файлы к сообщениям
Вы не можете скачивать файлы