Девушка без комплексов / Trainwreck (Джудд Апатоу / Judd Apatow) [2015, США, мелодрама, комедия, BDRip-AVC] [Театральная версия] Dub

 
Автор Сообщение

TorrentFilm ®

Пол:

Стаж: 2 года

Сообщений: 7741



Награды: Нет

Торрент-статистика

Создавать темы 10-Ноя-2015 00:08

[Цитировать]

Девушка без комплексов
Trainwreck
«Ни в чём себе не отказывай»
Театральная версия / Theatrical Cut



Страна: США
Жанр: мелодрама, комедия
Год выпуска: 2015
Продолжительность: 02:04:45
Перевод: Профессиональный (полное дублирование) [Лицензия iTunes]
Субтитры: нет
Оригинальная аудиодорожка: нет
Режиссер: Джудд Апатоу / Judd Apatow
В ролях: Эми Шумер, Билл Хейдер, Бри Ларсон, Колин Куинн, Джон Сина, Ванесса Байер, Майк Бирбиглия, Эзра Миллер, Дэйв Аттелль, Тильда Суинтон, Леброн Джеймс, Девин Фабри
Описание:
У симпатичной девушки Эми никогда не было серьезных отношений. Она придерживается свободных взглядов и обычно не ходит дважды с одним парнем на свидание. Будучи сотрудницей крупного мужского издания, она получает задание от шефа написать статью о спортивном враче Ароне. Эми и не рассчитывала, что деловая встреча с доктором изменит ее жизнь.

Релиз:
Автор рипа: Stalker oK
Сэмпл
Качество видео: BDRip-AVC [Blu-ray Remux 1080p HDCLUB]
Формат видео: MKV
Видео кодек: AVC
Аудио кодек: AC3
Видео: 1293 Кбит/сек, 936x390 (2.40:1), 23,976 кадр/сек, AVC
Аудио: русский, 384 Кбит/сек, 48 КГц, 16 бит, 5.1, AC3
Навигация по главам: есть

MediaInfo

General
Unique ID : 243630576030640818130542337145152037409 (0xB7498ACBF3E8742495357D50A1516221)
Complete name : M:\Rips\Trainwreck\Trainwreck.2015.BDRip-AVC.Dub.1.45Gb...stalkerok.new-team.mkv
Format : Matroska
File size : 1.46 GiB
Duration : 2h 4mn
Overall bit rate : 1 678 Kbps
Movie name : Trainwreck (2015) (New-Team) (Rip by Stalker oK)
Encoded date : UTC 2015-11-06 10:30:54
Writing application : mkvmerge v7.9.0 ('Birds') 64bit
Writing library : libebml v1.3.1 + libmatroska v1.4.2
Video
ID : 1
Format : AVC
Format/Info : Advanced Video Codec
Format profile : High@L4.1
Format settings, CABAC : Yes
Format settings, ReFrames : 12 frames
Codec ID : V_MPEG4/ISO/AVC
Duration : 2h 4mn
Bit rate : 1 293 Kbps
Width : 936 pixels
Height : 390 pixels
Display aspect ratio : 2.40:1
Frame rate : 23.976 fps
Color space : YUV
Chroma subsampling : 4:2:0
Bit depth : 8 bits
Scan type : Progressive
Bits/(Pixel*Frame) : 0.148
Stream size : 1.10 GiB (75%)
Title : Trainwreck (2015) (New-Team) (Rip by Stalker oK)
Writing library : x264 core 146 r2538kMod 121396c
Encoding settings : cabac=1 / ref=12 / deblock=1:-3:-3 / analyse=0x3:0x133 / me=umh / subme=11 / psy=1 / fade_compensate=0.00 / psy_rd=1.00:0.10 / mixed_ref=1 / me_range=48 / chroma_me=1 / trellis=2 / 8x8dct=1 / cqm=0 / deadzone=21,11 / fast_pskip=0 / chroma_qp_offset=-3 / threads=12 / lookahead_threads=3 / sliced_threads=0 / nr=0 / decimate=0 / interlaced=0 / bluray_compat=0 / constrained_intra=0 / fgo=0 / bframes=14 / b_pyramid=2 / b_adapt=2 / b_bias=0 / direct=3 / weightb=1 / open_gop=0 / weightp=2 / keyint=240 / keyint_min=23 / scenecut=40 / intra_refresh=0 / rc_lookahead=60 / rc=2pass / mbtree=0 / bitrate=1293 / ratetol=1.0 / qcomp=0.70 / qpmin=0 / qpmax=69 / qpstep=4 / cplxblur=20.0 / qblur=0.5 / vbv_maxrate=50000 / vbv_bufsize=62500 / nal_hrd=none / filler=0 / ip_ratio=1.40 / pb_ratio=1.30 / aq=3:0.94
Audio
ID : 2
Format : AC-3
Format/Info : Audio Coding 3
Mode extension : CM (complete main)
Codec ID : A_AC3
Duration : 2h 4mn
Bit rate mode : Constant
Bit rate : 384 Kbps
Channel(s) : 6 channels
Channel positions : Front: L C R, Side: L R, LFE
Sampling rate : 48.0 KHz
Bit depth : 16 bits
Compression mode : Lossy
Stream size : 343 MiB (23%)
Language : Russian
Menu
00:00:00.000 : en:Chapter 1
00:04:41.281 : en:Chapter 2
00:12:21.990 : en:Chapter 3
00:19:41.512 : en:Chapter 4
00:25:38.118 : en:Chapter 5
00:31:38.020 : en:Chapter 6
00:38:46.907 : en:Chapter 7
00:45:36.817 : en:Chapter 8
00:51:22.704 : en:Chapter 9
00:56:23.713 : en:Chapter 10
01:00:18.489 : en:Chapter 11
01:05:57.202 : en:Chapter 12
01:12:06.320 : en:Chapter 13
01:20:40.335 : en:Chapter 14
01:28:51.617 : en:Chapter 15
01:34:26.868 : en:Chapter 16
01:39:08.024 : en:Chapter 17
01:46:17.412 : en:Chapter 18
01:54:06.506 : en:Chapter 19
01:59:10.268 : en:Chapter 20

Скриншоты

[Профиль] [ЛС]
Показать сообщения:    

Текущее время: Сегодня 16:52

Часовой пояс: GMT



Вы не можете начинать темы
Вы не можете отвечать на сообщения
Вы не можете редактировать свои сообщения
Вы не можете удалять свои сообщения
Вы не можете голосовать в опросах
Вы не можете прикреплять файлы к сообщениям
Вы не можете скачивать файлы