Девочки против мальчиков / Girls Against Boys (2012) BDRip 1080p | L1

 
Автор Сообщение

Russian Mafia ®

Пол:

Стаж: 1 год 8 месяцев

Сообщений: 4257



Награды: 10 (Подробнее)

Mega Seeder 4 (Количество: 1) Top Releaser 2 (Количество: 1) Top Releaser 5 (Количество: 1)
Торрент-статистика

Создавать темы 18-Окт-2016 16:18

[Цитировать]

Название: Девочки против мальчиков
Оригинальное название: Girls Against Boys
Год выхода: 2012
Страна: США
Студия: Floren Shieh Productions
Продолжительность: 01:33:06
Жанр: ужасы, триллер, драма, ...
Режиссер: Остин Чик
В ролях: Даниэль Панабэйкер, Николь Лалиберт, Лиам Эйкен, Майкл Сталь-Дэвид, Мэттью Ройч, Каролин Лагерфельт, Рейна Де Корси, Эндрю Ховард, Марло Маррон, Софи Перез, Николас Маккароне, Виториа Сетта, Уилл Брилл, Кармине ДиБенедетто, Сьюзи Чо, Келвин Хейл, Джеймс Ортиз, Макензи Ли, Дэннис Джонсон, Рауль Кассо, Джон Кроуфорд, Аарон Дискин, ...
Перевод: Любительский (одноголосый, закадровый) den904
О фильме: Психологический триллер о двух девушках, которые убивают парней ради морального удовлетворения. Изощренно убивая своих бывших обидчиков, они погружаются в глубокую яму, выхода из которой просто нет...

Кодек: x264
Качество: BDRip 1080p
Видео: 1920x1080, 10000 kbps, 23,976 fps
Аудио #1: AC-3, 6 ch, 640 kbps (Rus) - VO den904
Аудио #2: AC-3, 6 ch, 640 kbps (Eng)
Субтитры: Русские, Английские (SDH)

MediaInfo

x264 [info]: frame I:714 Avg QP:15.95 size:239878
x264 [info]: frame P:27338 Avg QP:19.09 size:106937
x264 [info]: frame B:105889 Avg QP:21.22 size: 36670
x264 [info]: consecutive B-frames: 1.8% 4.8% 5.8% 8.7% 12.6% 40.5% 11.6% 11.2% 1.5% 0.3% 0.3% 0.1% 0.8%
Общее
Уникальный идентификатор : 218245597160761528493153038908567971861 (0xA43092B5634809E68605B015F495E815)
Полное имя : Девочки против мальчиков (Girls Against Boys) 2012 BDRip 1080p.mkv
Формат : Matroska
Версия формата : Version 2
Размер файла : 7,33 Гбайт
Продолжительность : 1 ч. 33 м.
Общий поток : 11,3 Мбит/сек
Дата кодирования : UTC 2016-10-18 13:47:07
Программа кодирования : mkvmerge v4.0.0 ('The Stars were mine') сборка от Jun 6 2010 16:18:42
Библиотека кодирования : libebml v1.0.0 + libmatroska v1.0.0
Видео
Идентификатор : 1
Формат : AVC
Формат/Информация : Advanced Video Codec
Профиль формата : High@L4.1
Параметр CABAC формата : Да
Параметр ReFrames формата : 4 кадра
Идентификатор кодека : V_MPEG4/ISO/AVC
Продолжительность : 1 ч. 33 м.
Битрейт : 10000 Кбит/сек
Ширина : 1920 пикселей
Высота : 1080 пикселей
Соотношение сторон : 16:9
Режим частоты кадров : Постоянный
Частота кадров : 23,976 (24000/1001) кадра/сек
Цветовое пространство : YUV
Субдискретизация насыщенности : 4:2:0
Битовая глубина : 8 бит
Тип развёртки : Прогрессивная
Бит/(Пиксели*Кадры) : 0.201
Размер потока : 6,35 Гбайт (87%)
Библиотека кодирования : x264 core 146 r2538 121396c
Настройки программы : cabac=1 / ref=4 / deblock=1:-3:-3 / analyse=0x3:0x133 / me=umh / subme=11 / psy=1 / psy_rd=1.00:0.00 / mixed_ref=1 / me_range=32 / chroma_me=1 / trellis=2 / 8x8dct=1 / cqm=0 / deadzone=21,11 / fast_pskip=0 / chroma_qp_offset=-2 / threads=12 / lookahead_threads=2 / sliced_threads=0 / nr=0 / decimate=0 / interlaced=0 / bluray_compat=0 / constrained_intra=0 / bframes=12 / b_pyramid=2 / b_adapt=2 / b_bias=0 / direct=3 / weightb=1 / open_gop=0 / weightp=2 / keyint=240 / keyint_min=23 / scenecut=40 / intra_refresh=0 / rc=2pass / mbtree=0 / bitrate=10000 / ratetol=1.0 / qcomp=0.60 / qpmin=0 / qpmax=69 / qpstep=4 / cplxblur=20.0 / qblur=0.5 / ip_ratio=1.40 / pb_ratio=1.30 / aq=1:0.80
Язык : English
Default : Нет
Forced : Нет
Аудио #1
Идентификатор : 2
Формат : AC-3
Формат/Информация : Audio Coding 3
Расширение режима : CM (complete main)
Параметр Endianness формата : Big
Идентификатор кодека : A_AC3
Продолжительность : 1 ч. 33 м.
Вид битрейта : Постоянный
Битрейт : 640 Кбит/сек
Каналы : 6 каналов
Расположение каналов : Front: L C R, Side: L R, LFE
Частота : 48,0 КГц
Частота кадров : 31,250 кадров/сек (1536 spf)
Метод сжатия : С потерями
Размер потока : 426 Мбайт (6%)
Заголовок : VO den904
Язык : Russian
Default : Нет
Forced : Нет
Аудио #2
Идентификатор : 3
Формат : AC-3
Формат/Информация : Audio Coding 3
Расширение режима : CM (complete main)
Параметр Endianness формата : Big
Идентификатор кодека : A_AC3
Продолжительность : 1 ч. 33 м.
Вид битрейта : Постоянный
Битрейт : 640 Кбит/сек
Каналы : 6 каналов
Расположение каналов : Front: L C R, Side: L R, LFE
Частота : 48,0 КГц
Частота кадров : 31,250 кадров/сек (1536 spf)
Метод сжатия : С потерями
Размер потока : 426 Мбайт (6%)
Язык : English
Default : Нет
Forced : Нет
Текст #1
Идентификатор : 4
Формат : UTF-8
Идентификатор кодека : S_TEXT/UTF8
Идентификатор кодека/Информация : UTF-8 Plain Text
Язык : Russian
Default : Нет
Forced : Нет
Текст #2
Идентификатор : 5
Формат : UTF-8
Идентификатор кодека : S_TEXT/UTF8
Идентификатор кодека/Информация : UTF-8 Plain Text
Заголовок : SDH
Язык : English
Default : Нет
Forced : Нет

[Профиль] [ЛС]
Показать сообщения:    

Текущее время: Сегодня 22:37

Часовой пояс: GMT



Вы не можете начинать темы
Вы не можете отвечать на сообщения
Вы не можете редактировать свои сообщения
Вы не можете удалять свои сообщения
Вы не можете голосовать в опросах
Вы не можете прикреплять файлы к сообщениям
Вы не можете скачивать файлы