Дева на троне / Девушка-король / The girl king (Мика Каурисмяки / Mika Kaurismaki) [2015, Швеция, Финляндия, Канада, исторический, биография, DVDRip] Sub Rus + Original Eng

 
Автор Сообщение

TorrentFilm ®

Пол:

Стаж: 2 года

Сообщений: 7741



Награды: Нет

Торрент-статистика

Создавать темы 23-Дек-2015 00:30

[Цитировать]

Дева на троне / Девушка-король / The girl king
Страна: Швеция, Финляндия, Канада, Германия, Франция
Жанр: исторический, биография
Год выпуска: 2015
Продолжительность: 01:46:09
Перевод: Субтитры (М.Васильев)
Cубтитры: русские
Оригинальная аудиодорожка: английский (звучит еще французская, немецкая, итальянская речь)
Режиссер: Мика Каурисмяки / Mika Kaurismaki
В ролях: Малин Буска, Сара Гадон, Микаэль Нюквист, Лукас Брайант, Петре Ломайер, Франсуа Арно, Лаура Бирн
Описание: Фильм – биография шведской королевы Кристины (годы жизни: 1626 – 1689). Твердый характер сочетался в ней с ненасытной жаждой знаний. Она требовала немедленного исполнения всех своих желаний и была склонна к экстравагантным поступкам, шокировавшим ее окружение. Все время на престоле она враждовала с Советом, стремившимся ограничить власть монарха. Совет желал маленькую победоносную войну, а королева решила строить в Стокгольме самую большую библиотеку в Европе. Совет требовал от нее выйти замуж, но Кристина заявляла, что не желает иметь детей. Скандализированная поведением королевы, аристократия решает отстранить ее от власти…
Доп. информация: Королева Кристина – личность легендарная и весьма интересная. Во многом по причине того, что правила она на задворках Европы, широкой публике эта дама известна меньше, чем другие легендарные правительницы (Екатерина Великая, Елизавета I).
На данный момент самым известным фильмом о Кристине считается американская мелодрама «Королева Кристина» (1933) с Гретой Гарбо в главной роли.
«Дева на троне» - фильм, основанный на самой полной биографии королевы, изданной несколько лет назад в Швеции. Над книгой несколько лет работал коллектив авторов, изучавший многочисленные документы в шведском королевском архиве.
Фильм переведен для ВК группы СКАНДИНАВСКИЙ КАЛЕЙДОСКОП
Сэмпл
IMDB
КИНОПОИСК
Качество видео: DVDRip
Формат видео: AVI
Видео: 1436 Kbps 720x304 (2.35:1) 24 000 fps XviD
Аудио: 384 Kbps, 48.0 KHz, 16 bits, 6 ch, AC 3
Формат субтитров: softsub (SRT)

MediaInfo

General
Complete name : C:\Users\Владелец\Desktop\The.Girl.avi
Format : AVI
Format/Info : Audio Video Interleave
File size : 1.36 GiB
Duration : 1h 46mn
Overall bit rate : 1 829 Kbps
Video
ID : 0
Format : MPEG-4 Visual
Format profile : Advanced Simple@L5
Format settings, BVOP : 2
Format settings, QPel : No
Format settings, GMC : No warppoints
Format settings, Matrix : Default (H.263)
Codec ID : XVID
Codec ID/Hint : XviD
Duration : 1h 46mn
Bit rate : 1 436 Kbps
Width : 720 pixels
Height : 304 pixels
Display aspect ratio : 2.35:1
Frame rate : 24.000 fps
Color space : YUV
Chroma subsampling : 4:2:0
Bit depth : 8 bits
Scan type : Progressive
Compression mode : Lossy
Bits/(Pixel*Frame) : 0.273
Stream size : 1.06 GiB (78%)
Writing library : XviD 66
Audio
ID : 1
Format : AC-3
Format/Info : Audio Coding 3
Mode extension : CM (complete main)
Format settings, Endianness : Big
Codec ID : 2000
Duration : 1h 46mn
Bit rate mode : Constant
Bit rate : 384 Kbps
Channel(s) : 6 channels
Channel positions : Front: L C R, Side: L R, LFE
Sampling rate : 48.0 KHz
Bit depth : 16 bits
Compression mode : Lossy
Stream size : 292 MiB (21%)
Alignment : Aligned on interleaves
Interleave, duration : 42 ms (1.00 video frame)
Interleave, preload duration : 512 ms

Скриншот c названием фильма

Скриншоты










Титры

1
00:00:54,000 --> 00:00:58,766
Кристина, Королева Швеции!
2
00:00:58,800 --> 00:01:05,100
Я прошу вас прислушаться
к голосу разума!
3
00:01:05,133 --> 00:01:10,566
Я умоляю вас
именем нашего Господа!
4
00:01:10,600 --> 00:01:13,533
Спасите свою империю!
5
00:01:16,000 --> 00:01:22,000
В первой половине 17 века в Европе
бушевала война между католиками и протестантами.
6
00:01:23,000 --> 00:01:29,000
В 1632 шведский король Густав II, исповедовавший
протестантизм, гибнет на поле боя.
7
00:01:42,000 --> 00:01:45,500
Законный наследник - единственный
ребенок короля - дочь Кристина.
8
00:01:57,466 --> 00:01:59,267
Кристина.
9
00:02:03,533 --> 00:02:06,100
Кристина.
10
00:02:27,633 --> 00:02:29,566
Спокойной ночи.
11
00:02:29,600 --> 00:02:31,200
До завтра.
12
00:02:33,133 --> 00:02:35,267
Королева не желает
вас видеть!
13
00:02:43,833 --> 00:02:46,566
Как вы посмели
ворваться в мои покои?
14
00:02:46,600 --> 00:02:49,366
Я пришел спасти
вашу дочь
15
00:02:49,399 --> 00:02:51,300
и забрать тело короля.
16
00:02:51,333 --> 00:02:53,466
- Уже!
- Уже?
17
00:02:53,499 --> 00:02:55,333
Он лежит здесь
два года!
18
00:03:00,999 --> 00:03:01,999
Его сердце!
19
00:03:02,000 --> 00:03:04,366
Эта сумасшедшая женщина...
20
00:03:04,399 --> 00:03:06,800
Никакого уважения
к королю...
21
00:03:06,833 --> 00:03:08,433
Нет!
22
00:03:09,333 --> 00:03:11,366
Кристина!
23
00:03:13,133 --> 00:03:16,300
Кристина!
24
00:03:16,333 --> 00:03:17,733
Идем.
25
00:03:19,300 --> 00:03:21,067
Кристина.
[Профиль] [ЛС]
Кто просматривает тему:

Показать сообщения:    

Текущее время: Сегодня 16:26

Часовой пояс: GMT



Вы не можете начинать темы
Вы не можете отвечать на сообщения
Вы не можете редактировать свои сообщения
Вы не можете удалять свои сообщения
Вы не можете голосовать в опросах
Вы не можете прикреплять файлы к сообщениям
Вы не можете скачивать файлы