Дворянское гнездо (Андрей Михалков-Кончаловский) [1969, СССР, Мелодрама, DVD9] + Sub Eng, Rus, Fra, Deu, Esp, Ita, Ned, Port, Ara, Sve, Jap, Chi, Hebr + Original Rus / RUSCICO

 
Автор Сообщение

TorrentFilm ®

Пол:

Стаж: 2 года

Сообщений: 7741



Награды: Нет

Торрент-статистика

Создавать темы 03-Янв-2016 00:05

[Цитировать]

Дворянское гнездо / RUSCICO
Страна: СССР
Студия: МосфильмЖанр: Мелодрама
Год выпуска: 1969Продолжительность: 01:44:59
Производитель: RUSCICOCубтитры: Английские, Русские, Французские, Немецкие, Испанские, Итальянские, Голландские, Португальские, Арабские, Шведские, Японские, Китайские, Иврит
Оригинальная аудиодорожка: Русский
Режиссер: Андрей Михалков-Кончаловский
В ролях: Ирина Купченко — Лиза Калитина
Леонид Кулагин — Фёдор Иванович Лаврецкий
Беата Тышкевич — Варвара Павловна
Тамара Чернова — Мария Дмитриевна Калитина
Виктор Сергачёв — Паншин Владимир Николаевич
Василий Меркурьев — Геденовский Сергей Петрович
Александр Костомолоцкий — Лемм
Мария Дурасова — Марфа Тимофеевна Пестова
Владимир Кочурихин — Антон
Сергей Никоненко — Гришка
Никита Михалков — князь Нелидов
Николай Губенко — Ситников
Нонна Терентьева — Жюстина
Зоя Рупасова — Акулина
Дарья Семёнова — Леночка
Лилия Огиенко-Оливье — княжна Гагарина
Елена Тяпкина — эпизод
Леонид Плешаков — эпизод
Описание:Главный герой фильма Фёдор Иванович Лаврецкий возвращается в своё поместье после 11-летнего проживания в Париже. Разочарованный жизнью, обманутый изменившей ему женой, после долгой разлуки с Россией — так выглядит герой в начале фильма. Вскоре Лаврецкий влюбляется в очаровательную юную дочь своей двоюродной сестры, Лизу. Из газет Лаврецкий узнаёт о смерти жены, внезапно умершей в Париже. Признание в любви Лизе, приезд в имение «воскресшей» жены осложняют, казалось бы, простой сюжет…
Бонусы: Интервью с режисером с Андреем Михалков-Кончаловским.Интервью со сценаристом Валентином Ежовым.Тургенев И.С - биография.Фотоальбом.
Меню: Русский, Английский,Французский, Анимированное, Озвученное
Сэмпл: http://multi-up.com/906778
Тип релиза: DVD9
Контейнер: DVD-VideoФормат субтитров : prerendered (DVD/IDX+SUB)
Видео: PAL 4:3 (720x576) VBR, 6080 Кбит/сек, 25,000 кадров/сек
Аудио 1 : Русский: AC3, 6 ch, 48,0 КГц, 448 KbpsАудио 2 : Французский: AC3, 6 ch, 48,0 КГц, 448 Kbps

Награды фильма

1973 Jussi Award
Лучший иностранный режиссёр (Андрей Михалков-Кончаловский)

Это интересно...

Текст романса «Ивы», который звучит в фильме, написан матерью А. С. Кончаловского писательницей и поэтессой Натальей Петровной Кончаловской, музыка — Вячеслав Овчинников. В фильме романс звучит в исполнении сестёр Лисициан — Карины и Рузанны.

Dvd Info

Title: A Nest of Gentry (1969) PAL DVD9
Size: 6.84 Gb ( 7 168 460,00 KBytes ) - DVD-9
Enabled regions: 1, 2, 3, 4, 5, 6, 7, 8
VTS_01 :
Play Length: 00:00:10
Video: PAL 4:3 (720x576) VBR
VTS_02 :
Play Length: 01:44:59
Video: PAL 4:3 (720x576) VBR
Audio:
Russian (Dolby AC3, 6 ch)
Francais (Dolby AC3, 6 ch)
Subtitles:
Russian
English
Francais
Deutsch
Nederlands
Espanol
Italiano
Portugues
Japanese
Hebrew
Svenska
Chinese
Arabic
VTS_03 :
Play Length: 00:18:06
Video: PAL 4:3 (720x576) VBR
Audio:
Russian (Dolby AC3, 3 ch)
Subtitles:
English
Francais
Italiano
Espanol
VTS_04 :
Play Length: 00:10:21
Video: PAL 4:3 (720x576) VBR
Audio:
Russian (Dolby AC3, 3 ch)
Subtitles:
English
Francais
Italiano
Espanol

MediaInfo

Общее
Полное имя : M:\A Nest of Gentry (1969) PAL DVD9\VIDEO_TS\VTS_02_1.VOB
Формат : MPEG-PS
Размер файла : 1024 Мбайт
Продолжительность : 20 м.
Общий поток : 7118 Кбит/сек
Видео
Идентификатор : 224 (0xE0)
Формат : MPEG Video
Версия формата : Version 2
Профиль формата : Main@Main
Параметр BVOP формата : Да
Параметр матрицы формата : Выборочная
Параметр GOP формата : M=2, N=4
Продолжительность : 20 м.
Битрейт : 6080 Кбит/сек
Максимальный битрейт : 6000 Кбит/сек
Ширина : 720 пикселей
Высота : 576 пикселей
Соотношение сторон : 4:3
Частота кадров : 25,000 кадров/сек
Стандарт вещания : PAL
Цветовое пространство : YUV
Субдискретизация насыщенности : 4:2:0
Битовая глубина : 8 бит
Тип развёртки : Чересстрочная
Порядок развёртки : Верхнее поле первое
Метод сжатия : С потерями
Бит/(Пиксели*Кадры) : 0.586
Временной код первого кадра : 00:00:59:20
Оригинал временного кода : Group of pictures header
Размер потока : 875 Мбайт (85%)
Аудио #1
Идентификатор : 189 (0xBD)-128 (0x80)
Формат : AC-3
Формат/Информация : Audio Coding 3
Расширение режима : CM (complete main)
Параметр Endianness формата : Big
Режим смешивания : DVD-Video
Продолжительность : 20 м.
Вид битрейта : Постоянный
Битрейт : 448 Кбит/сек
Каналы : 6 каналов
Расположение каналов : Front: L C R, Side: L R, LFE
Частота : 48,0 КГц
Битовая глубина : 16 бит
Метод сжатия : С потерями
Задержка видео : 40 мс.
Размер потока : 64,4 Мбайт (6%)
Аудио #2
Идентификатор : 189 (0xBD)-129 (0x81)
Формат : AC-3
Формат/Информация : Audio Coding 3
Расширение режима : CM (complete main)
Параметр Endianness формата : Big
Режим смешивания : DVD-Video
Продолжительность : 20 м.
Вид битрейта : Постоянный
Битрейт : 448 Кбит/сек
Каналы : 6 каналов
Расположение каналов : Front: L C R, Side: L R, LFE
Частота : 48,0 КГц
Битовая глубина : 16 бит
Метод сжатия : С потерями
Задержка видео : 80 мс.
Размер потока : 64,4 Мбайт (6%)
Текст #1
Идентификатор : 189 (0xBD)-33 (0x21)
Формат : RLE
Формат/Информация : Run-length encoding
Режим смешивания : DVD-Video
Продолжительность : 20 м.
Задержка видео : 680 мс.
Текст #2
Идентификатор : 189 (0xBD)-34 (0x22)
Формат : RLE
Формат/Информация : Run-length encoding
Режим смешивания : DVD-Video
Продолжительность : 20 м.
Задержка видео : 680 мс.
Текст #3
Идентификатор : 189 (0xBD)-35 (0x23)
Формат : RLE
Формат/Информация : Run-length encoding
Режим смешивания : DVD-Video
Продолжительность : 20 м.
Задержка видео : 680 мс.
Текст #4
Идентификатор : 189 (0xBD)-36 (0x24)
Формат : RLE
Формат/Информация : Run-length encoding
Режим смешивания : DVD-Video
Продолжительность : 20 м.
Задержка видео : 680 мс.
Текст #5
Идентификатор : 189 (0xBD)-37 (0x25)
Формат : RLE
Формат/Информация : Run-length encoding
Режим смешивания : DVD-Video
Продолжительность : 20 м.
Задержка видео : 680 мс.
Текст #6
Идентификатор : 189 (0xBD)-38 (0x26)
Формат : RLE
Формат/Информация : Run-length encoding
Режим смешивания : DVD-Video
Продолжительность : 20 м.
Задержка видео : 680 мс.
Текст #7
Идентификатор : 189 (0xBD)-39 (0x27)
Формат : RLE
Формат/Информация : Run-length encoding
Режим смешивания : DVD-Video
Продолжительность : 20 м.
Задержка видео : 680 мс.
Текст #8
Идентификатор : 189 (0xBD)-40 (0x28)
Формат : RLE
Формат/Информация : Run-length encoding
Режим смешивания : DVD-Video
Продолжительность : 20 м.
Задержка видео : 680 мс.
Текст #9
Идентификатор : 189 (0xBD)-41 (0x29)
Формат : RLE
Формат/Информация : Run-length encoding
Режим смешивания : DVD-Video
Продолжительность : 20 м.
Задержка видео : 680 мс.
Текст #10
Идентификатор : 189 (0xBD)-42 (0x2A)
Формат : RLE
Формат/Информация : Run-length encoding
Режим смешивания : DVD-Video
Продолжительность : 20 м.
Задержка видео : 680 мс.
Текст #11
Идентификатор : 189 (0xBD)-43 (0x2B)
Формат : RLE
Формат/Информация : Run-length encoding
Режим смешивания : DVD-Video
Продолжительность : 20 м.
Задержка видео : 680 мс.
Текст #12
Идентификатор : 189 (0xBD)-44 (0x2C)
Формат : RLE
Формат/Информация : Run-length encoding
Режим смешивания : DVD-Video
Продолжительность : 20 м.
Задержка видео : 680 мс.
Текст #13
Идентификатор : 189 (0xBD)-32 (0x20)
Формат : RLE
Формат/Информация : Run-length encoding
Режим смешивания : DVD-Video

Скриншоты меню

Скриншоты

Скриншоты доп. материалов

Полиграфия

Уважаемые пользователи!Найдите пару минут поблагодарить релизера и высказаться в топике раздачи.Ваше мнение - бальзам для раздающего и пища для ума остальным пользователям.Мои раздачи
[Профиль] [ЛС]
Показать сообщения:    

Текущее время: Сегодня 16:54

Часовой пояс: GMT



Вы не можете начинать темы
Вы не можете отвечать на сообщения
Вы не можете редактировать свои сообщения
Вы не можете удалять свои сообщения
Вы не можете голосовать в опросах
Вы не можете прикреплять файлы к сообщениям
Вы не можете скачивать файлы