Двойное лицо / Het Tweede Gelaat (2017) HDRip 720p | GreenРай Studio

 
Автор Сообщение

BOSS ®

Пол:

Стаж: 3 года 9 месяцев

Сообщений: 11123

Откуда: ODESSA



Награды: 22 (Подробнее)

Mega Seeder 5 (Количество: 1) Top Releaser 4 (Количество: 1) Mega Seeder 3 (Количество: 1)
Торрент-статистика

Создавать темы 12-Июл-2018 17:20

[Цитировать]

Информация о фильме
Год выхода: 2017
Наименование: Двойное лицо
Оригинальное наименование: Het Tweede Gelaat
Страна: Бельгия
Жанр: боевик, триллер, драма, криминал
Режиссер постановщик: Ян Верхейен
В главных ролях: Коэн Де Боу, Вернер Де Смедт, Грег Тиммерманс, Марсель Хенсема, Хендрик Эртз, Юрген Делнат, Крис ван ден Дюрпел, Хильде Хейнен
О фильме: Двое офицеров полиции Винке и Верстуйф были верными напарниками, которым удавалось работать, как единое целое, и это помогало героям распутывать очень сложные преступления. Недавно в городе появился новый серийный убийца, который измывается над своими жертвами перед тем, как лишить их жизни, и это дело, как раз, будет поручено Винке и Верстуйфу. Герои стараются найти как можно больше улик, чтобы выследить преступника, однако тот решил сыграть с ними в игру, по плану которой он хочет рассорить коллег. Но все пойдет наперекосяк после того, как убийца начнет охотиться за новой жертвой, однако та явно не собирается попадать ему в руки.

Файл
Качество: HDRip 720p
Видео данные: MKV, 1280x536 (2.40:1), 24.000 fps, 4063 Кбит/с
Аудио данные: AC3, 2 ch, 640 Кбит/с
Перевод: Любительский многоголосый (GreenРай Studio)
Продолжительность: 02:07:47

Медиаинфо

General
Unique ID : 247991178411997685444980734588210668414 (0xBA915D17D2976B1A9BE46B376DCC637E)
Complete name : D:ГРИНРАЙHet.Tweede.Gelaat.2017.P.BDRip.720p.mkv
Format : Matroska
Format version : Version 4 / Version 2
File size : 4.28 GiB
Duration : 2 h 7 min
Overall bit rate : 4 798 kb/s
Encoded date : UTC 2018-07-12 06:08:03
Writing application : mkvmerge v6.5.0 ('Isn't she lovely') built on Oct 20 2013 12:50:05
Writing library : libebml v1.3.0 + libmatroska v1.4.1
Video
ID : 1
Format : AVC
Format/Info : Advanced Video Codec
Format profile : High@L3.1
Format settings : CABAC / 4 Ref Frames
Format settings, CABAC : Yes
Format settings, RefFrames : 4 frames
Codec ID : V_MPEG4/ISO/AVC
Duration : 2 h 7 min
Bit rate : 4 063 kb/s
Width : 1 280 pixels
Height : 536 pixels
Display aspect ratio : 2.40:1
Frame rate mode : Constant
Frame rate : 24.000 FPS
Color space : YUV
Chroma subsampling : 4:2:0
Bit depth : 8 bits
Scan type : Progressive
Bits/(Pixel*Frame) : 0.247
Stream size : 3.63 GiB (85%)
Writing library : x264 core 146 r2538 121396c
Encoding settings : cabac=1 / ref=1 / deblock=1:0:0 / analyse=0x3:0x113 / me=hex / subme=2 / psy=1 / psy_rd=1.00:0.00 / mixed_ref=0 / me_range=16 / chroma_me=1 / trellis=0 / 8x8dct=1 / cqm=0 / deadzone=21,11 / fast_pskip=1 / chroma_qp_offset=0 / threads=9 / lookahead_threads=3 / sliced_threads=0 / nr=0 / decimate=1 / interlaced=0 / bluray_compat=0 / constrained_intra=0 / bframes=3 / b_pyramid=2 / b_adapt=1 / b_bias=0 / direct=1 / weightb=1 / open_gop=0 / weightp=1 / keyint=250 / keyint_min=23 / scenecut=40 / intra_refresh=0 / rc_lookahead=10 / rc=crf / mbtree=1 / crf=13.6 / qcomp=0.60 / qpmin=0 / qpmax=69 / qpstep=4 / ip_ratio=1.40 / aq=1:1.00
Language : English
Default : Yes
Forced : No
Audio
ID : 2
Format : AC-3
Format/Info : Audio Coding 3
Codec ID : A_AC3
Duration : 2 h 7 min
Bit rate mode : Constant
Bit rate : 640 kb/s
Channel(s) : 2 channels
Channel positions : Front: L R
Sampling rate : 48.0 kHz
Frame rate : 31.250 FPS (1536 SPF)
Bit depth : 16 bits
Compression mode : Lossy
Stream size : 585 MiB (13%)
Service kind : Complete Main
Default : Yes
Forced : No
Внимание, имеется видео и аудио реклама от спонсора показа

Скриншоты

Релиз от:
[Профиль] [ЛС]
Показать сообщения:    

Текущее время: Сегодня 20:02

Часовой пояс: GMT



Вы не можете начинать темы
Вы не можете отвечать на сообщения
Вы не можете редактировать свои сообщения
Вы не можете удалять свои сообщения
Вы не можете голосовать в опросах
Вы не можете прикреплять файлы к сообщениям
Вы не можете скачивать файлы