Двойник / The Double (2013) BDRip 720p | ATV | P | Лицензия

 
Автор Сообщение

sergej644 ®

Пол:

Стаж: 4 года 11 месяцев

Сообщений: 6041

Откуда: Soviet Union



Награды: Нет

Торрент-статистика

Создавать темы 10-Фев-2015 10:05

[Цитировать]

Двойник / The Double (2013) BDRip-AVC 720p | ATV | P | Лицензия
-Год выпуска: 2013
Производство: Великобритания / © 2013 Channel Four Television Corporation, The British Film Institute, Alcove Double Limited
Жанр: триллер, драма
Режиссер: Ричард Айоади
В ролях: Джесси Айзенберг, Миа Васиковска, Уоллес Шоун, Ясмин Пейдж, Ноа Тейлор, Джеймс Фокс, Кэти Мориарти, Филлис Соммервиль, Гэбриэлль Дауни, Джон Коркс
Описание:
Саймон Джеймс – простой работяга, скромный и непримечательный. Его беда в том, что он тихоня, его попросту никто не замечает, а значит, не оценивает по заслугам, даже девушка, с которой он мечтает познакомиться поближе, его игнорирует. И надо же было случиться такому невероятному событию – в контору, где работал Саймон, устроился человек, в точности похожий на Саймона, просто клон. Но коллеги даже не заметили этого сходства просто потому, что у двойника совершенно противоположный характер – он горячий мачо, харизматичный, где-то нахальный тип. Этому счастливчику удается все, в чем Саймон не может преуспеть. Так незаметно, но напористо клон начал забирать у Саймона его личную жизнь.

Продолжительность: 01:33:14
Перевод: Профессиональный (многоголосый закадровый) [BD RUS]
Cубтитры: Русские, Английские
Качество: BDRip [720p]
Видео: MPEG-4 AVC/H.264, 1280x690 (1.85:1), 6 100 kbps, 23.976 fps
Аудио 1: Русский/Профессиональный (многоголосый закадровый), AAC / 2.0 / 144 Kbps / 48.0 KHz
Аудио 2: Русский/Профессиональный (многоголосый закадровый), AC3 / 5.1 / 640 Kbps / 48.0 KHz
Аудио 3: Английский/Оригинальный, AAC / 2.0 / 150 Kbps / 48.0 KHz
Аудио 4: Английский/Оригинальный, AC3 / 5.1 / 448 Kbps / 48.0 KHz

iTunes Meta Tags

Sort Name: The Double
XID: Apple:vendor_id:2014-602694
Content ID: 850143942
Copyright: © 2013 Channel Four Television Corporation, The British Film Institute, Alcove Double Limited
ScreenWriters: Ричард Айоади, Эви Корин, Фёдор Достоевский
Producers: Амина Дасмал, Робин Фокс, Майкл Кейн
Director: Ричард Айоади
Cast: Jesse Eisenberg (Simon / James), Mia Wasikowska (Hannah), Wallace Shawn (Mr. Papadopoulos), Noah Taylor (Harris), Rade Šerbedžija (Frightening Old Man), Yasmin Paige (Melanie Papadopoulos), Cathy Moriarty, Gemma Chan, James Fox (The Colonel), Nathalie Cox (Jack's wife), Phyllis Somerville (Simon's Mother)
Rating: R
Long Deion: Саймон - скромный работяга. На работе его не замечают, а девушка мечты игнорирует. Кажется, что так будет продолжаться вечно, но однажды в конторе появляется Джеймс, внешне - двойник Саймона, но по характеру его полная противоположность - уверенный, харизматичный плейбой. К ужасу Саймона, Джеймс потихоньку начинает забирать его жизнь.
Deion: Саймон - скромный работяга. На работе его не замечают, а девушка мечты игнорирует. Кажется, что так будет продолжаться вечно, но однажды в конторе появляется Джеймс, внешне - двойник Саймона, но по характеру его полная противоположность - уверенный,
Release Date: 2013-09-07T08:00:00Z
Genre: Thriller
Artist: Richard Ayoade
Name: Двойник

MediaInfo

General
Complete name : C:CREATE264mod1outThe.Double.2013.BDRip.720p.P.NNM.m4v
Format : MPEG-4
Codec ID : M4V
File size : 4.91 GiB
Duration : 1h 33mn
Overall bit rate mode : Variable
Overall bit rate : 7 544 Kbps
Movie name : Двойник
Performer : Richard Ayoade
Genre : Thriller
ContentType : Short Film
Deion : Саймон - скромный работяга. На работе его не замечают, а девушка мечты игнорирует. Кажется, что так будет продолжаться вечно, но однажды в конторе появляется Джеймс, внешне - двойник Саймона, но по характеру его полная противоположность - уверенный,
Recorded date : UTC 2013-09-07 08:00:00
Encoded date : UTC 2014-10-04 16:59:24
Tagged date : UTC 2014-10-04 17:06:31
Copyright : © 2013 Channel Four Television Corporation, The British Film Institute, Alcove Double Limited
Cover : Yes
ContentRating : mpaa|R|400|
Title/Sort : The Double
LongDeion : Саймон - скромный работяга. На работе его не замечают, а девушка мечты игнорирует. Кажется, что так будет продолжаться вечно, но однажды в конторе появляется Джеймс, внешне - двойник Саймона, но по характеру его полная противоположность - уверенный, харизматичный плейбой. К ужасу Саймона, Джеймс потихоньку начинает забирать его жизнь.
HDVideo : Yes
AppleStoreCatalogID : 850143942
Vendor : Apple:vendor_id:2014-602694
Video
ID : 1
Format : AVC
Format/Info : Advanced Video Codec
Format profile : High@L4.1
Format settings, CABAC : Yes
Format settings, ReFrames : 9 frames
Codec ID : avc1
Codec ID/Info : Advanced Video Coding
Duration : 1h 33mn
Bit rate : 6 150 Kbps
Maximum bit rate : 19.9 Mbps
Width : 1 280 pixels
Height : 690 pixels
Display aspect ratio : 1.85:1
Frame rate mode : Constant
Frame rate : 23.976 fps
Color space : YUV
Chroma subsampling : 4:2:0
Bit depth : 8 bits
Scan type : Progressive
Bits/(Pixel*Frame) : 0.290
Stream size : 4.00 GiB (82%)
Language : English
Encoded date : UTC 2014-10-04 16:59:24
Tagged date : UTC 2014-10-04 17:00:23
Color primaries : BT.709
Transfer characteristics : BT.709
Matrix coefficients : BT.709
Audio #1
ID : 2
Format : AAC
Format/Info : Advanced Audio Codec
Format profile : LC
Codec ID : 40
Duration : 1h 33mn
Bit rate mode : Variable
Bit rate : 144 Kbps
Maximum bit rate : 205 Kbps
Channel(s) : 2 channels
Channel positions : Front: L R
Sampling rate : 48.0 KHz
Compression mode : Lossy
Stream size : 95.7 MiB (2%)
Title : MVO [BD RUS]
Language : Russian
Encoded date : UTC 2014-10-04 17:00:08
Tagged date : UTC 2014-10-04 17:00:23
Audio #2
ID : 3
Format : AC-3
Format/Info : Audio Coding 3
Mode extension : CM (complete main)
Format settings, Endianness : Big
Codec ID : ac-3
Duration : 1h 33mn
Bit rate mode : Constant
Bit rate : 640 Kbps
Channel(s) : 6 channels
Channel positions : Front: L C R, Side: L R, LFE
Sampling rate : 48.0 KHz
Bit depth : 16 bits
Compression mode : Lossy
Stream size : 427 MiB (8%)
Title : MVO [BD RUS]
Language : Russian
Encoded date : UTC 2014-10-04 17:00:12
Tagged date : UTC 2014-10-04 17:00:23
Audio #3
ID : 4
Format : AAC
Format/Info : Advanced Audio Codec
Format profile : LC
Codec ID : 40
Duration : 1h 33mn
Bit rate mode : Variable
Bit rate : 150 Kbps
Maximum bit rate : 203 Kbps
Channel(s) : 2 channels
Channel positions : Front: L R
Sampling rate : 48.0 KHz
Compression mode : Lossy
Stream size : 99.7 MiB (2%)
Title : original
Language : English
Encoded date : UTC 2014-10-04 17:00:16
Tagged date : UTC 2014-10-04 17:00:23
Audio #4
ID : 5
Format : AC-3
Format/Info : Audio Coding 3
Mode extension : CM (complete main)
Format settings, Endianness : Big
Codec ID : ac-3
Duration : 1h 33mn
Bit rate mode : Constant
Bit rate : 448 Kbps
Channel(s) : 6 channels
Channel positions : Front: L C R, Side: L R, LFE
Sampling rate : 48.0 KHz
Bit depth : 16 bits
Compression mode : Lossy
Stream size : 299 MiB (6%)
Title : original
Language : English
Encoded date : UTC 2014-10-04 17:00:20
Tagged date : UTC 2014-10-04 17:00:23
Text #1
ID : 6
Format : Timed Text
Muxing mode : sbtl
Codec ID : tx3g
Duration : 1h 32mn
Bit rate mode : Variable
Bit rate : 66 bps
Stream size : 44.9 KiB (0%)
Language : Russian
Encoded date : UTC 2014-10-04 17:00:23
Tagged date : UTC 2014-10-04 17:00:23
Text #2
ID : 7
Format : Timed Text
Muxing mode : sbtl
Codec ID : tx3g
Duration : 1h 32mn
Bit rate mode : Variable
Bit rate : 58 bps
Stream size : 39.5 KiB (0%)
Title : SDH
Language : English
Encoded date : UTC 2014-10-04 17:00:23
Tagged date : UTC 2014-10-04 17:00:23
Text #3
ID : 8
Format : Timed Text
Muxing mode : sbtl
Codec ID : tx3g
Duration : 1h 32mn
Bit rate mode : Variable
Bit rate : 55 bps
Stream size : 37.2 KiB (0%)
Language : English
Encoded date : UTC 2014-10-04 17:00:23
Tagged date : UTC 2014-10-04 17:00:23

x264 лог

x264 [info]: frame I:957 Avg QP:14.03 size:141330
x264 [info]: frame P:26342 Avg QP:18.02 size: 58926
x264 [info]: frame B:106792 Avg QP:20.38 size: 24459
x264 [info]: consecutive B-frames: 1.8% 2.3% 5.6% 11.4% 12.2% 48.0% 8.1% 3.8% 2.0% 2.7% 0.8% 0.5% 0.8%
x264 [info]: mb I I16..4: 20.2% 50.9% 29.0%
x264 [info]: mb P I16..4: 3.3% 12.9% 2.6% P16..4: 24.8% 28.3% 11.5% 3.8% 0.7% skip:12.1%
x264 [info]: mb B I16..4: 0.4% 2.1% 0.4% B16..8: 29.8% 18.6% 3.4% direct: 8.1% skip:37.1% L0:40.4% L1:40.8% BI:18.8%
x264 [info]: 8x8 transform intra:67.9% inter:42.4%
x264 [info]: coded y,uvDC,uvAC intra: 73.4% 70.2% 50.1% inter: 29.2% 22.3% 6.3%
x264 [info]: i16 v,h,dc,p: 37% 7% 17% 38%
x264 [info]: i8 v,h,dc,ddl,ddr,vr,hd,vl,hu: 14% 8% 22% 8% 9% 10% 9% 10% 11%
x264 [info]: i4 v,h,dc,ddl,ddr,vr,hd,vl,hu: 29% 7% 14% 7% 9% 9% 8% 8% 9%
x264 [info]: i8c dc,h,v,p: 37% 29% 21% 13%
x264 [info]: Weighted P-Frames: Y:5.9% UV:3.9%
x264 [info]: ref P L0: 51.8% 7.0% 17.3% 7.7% 5.3% 3.9% 3.1% 1.9% 1.7% 0.2% 0.0%
x264 [info]: ref B L0: 80.3% 9.6% 4.2% 2.0% 1.4% 1.1% 0.9% 0.4%
x264 [info]: ref B L1: 92.8% 7.2%
x264 [info]: kb/s:6150.12

Screenshots

[Профиль] [ЛС]
Показать сообщения:    

Текущее время: Сегодня 18:57

Часовой пояс: GMT



Вы не можете начинать темы
Вы не можете отвечать на сообщения
Вы не можете редактировать свои сообщения
Вы не можете удалять свои сообщения
Вы не можете голосовать в опросах
Вы не можете прикреплять файлы к сообщениям
Вы не можете скачивать файлы