Двойник / The Double (2013) BDRip 720p | P | Лицензия

 
Автор Сообщение

sergej644 ®

Пол:

Стаж: 4 года 11 месяцев

Сообщений: 6042

Откуда: Soviet Union



Награды: Нет

Торрент-статистика

Создавать темы 31-Янв-2015 23:06

[Цитировать]

Двойник
The Double
Год выпуска: 2013
Страна: Великобритания
Жанр: триллер, драма
Продолжительность: 01:33:12
Перевод: Профессиональный (многоголосый закадровый)
Субтитры: Russian (UTF-8), English (UTF-8)
Режиссер: Ричард Айоади

В ролях: Джесси Айзенберг / Jesse Eisenberg (Simon / James), Миа Васиковска / Mia Wasikowska (Hannah), Уоллес Шоун / Wallace Shawn (Mr. Papadopoulos), Ясмин Пейдж / Yasmin Paige (Melanie Papadopoulos), Ноа Тейлор / Noah Taylor (Harris), Джеймс Фокс / James Fox (The Colonel), Кэти Мориарти / Cathy Moriarty (Kiki), Филлис Соммервиль / Phyllis Somerville (Simon's Mother)
Описание: Саймон — скромный работяга. На работе его не замечают, а девушка мечты игнорирует. Кажется, что так будет продолжаться вечно, но однажды в конторе появляется Джеймс, внешне — двойник Саймона, но по характеру его полная противоположность — уверенный, харизматичный плейбой. К ужасу Саймона, Джеймс потихоньку начинает забирать его жизнь.
Рейтинг MPAA: Лицам до 17 лет обязательно присутствие взрослого


Исходник: The Double 2013 1080p GBR Blu-ray AVC DTS-HD MA 5.1-ESiR / 29106 kbps
Качество: BDRip 720p от SbR
Формат: MKV
Видео кодек: H.264 (AVC)
Аудио кодеk: AC3
Видео: 1280x692 (1.85:1), 23.976 fps, AVC, 7 123 Kbps
Аудио: Аудио #1: AC3, 640 Kbps, 48.0 KHz, 6 ch, RUS
Аудио #2: DTS, 755 Kbps, 48.0 KHz, 6 ch, ENG

МедиаИнфо

General
Unique ID : 238026183965003300424816955886246697400 (0xB3122CEF2ED7156DA1C3A532210619B8)
Complete name : The.Double.2013.720p.BluRay.Rus.Eng.HDCLUB-SbR.mkv
Format : Matroska
Format version : Version 4 / Version 2
File size : 5.66 GiB
Duration : 1h 33mn
Overall bit rate : 8 690 Kbps
Encoded date : UTC 2014-08-07 08:55:48
Writing application : mkvmerge v6.9.1 ('Blue Panther') 64bit built on Apr 18 2014 18:23:38
Writing library : libebml v1.3.0 + libmatroska v1.4.1
Video
ID : 1
Format : AVC
Format/Info : Advanced Video Codec
Format profile : High@L4.1
Format settings, CABAC : Yes
Format settings, ReFrames : 9 frames
Codec ID : V_MPEG4/ISO/AVC
Duration : 1h 33mn
Bit rate : 7 123 Kbps
Width : 1 280 pixels
Height : 692 pixels
Display aspect ratio : 1.85:1
Frame rate mode : Constant
Frame rate : 23.976 fps
Color space : YUV
Chroma subsampling : 4:2:0
Bit depth : 8 bits
Scan type : Progressive
Bits/(Pixel*Frame) : 0.335
Stream size : 4.64 GiB (82%)
Writing library : x264 core 142 r2453kMod ea0ca51
Encoding settings : cabac=1 / ref=9 / deblock=1:-3:-3 / analyse=0x3:0x133 / me=tesa / subme=10 / psy=1 / fade_compensate=0.00 / psy_rd=1.10:0.07 / mixed_ref=1 / me_range=24 / chroma_me=1 / trellis=2 / 8x8dct=1 / cqm=0 / deadzone=21,11 / fast_pskip=0 / chroma_qp_offset=-3 / threads=6 / lookahead_threads=1 / sliced_threads=0 / nr=0 / decimate=1 / interlaced=0 / bluray_compat=0 / constrained_intra=0 / fgo=0 / bframes=12 / b_pyramid=2 / b_adapt=2 / b_bias=0 / direct=3 / weightb=1 / open_gop=0 / weightp=2 / keyint=250 / keyint_min=23 / scenecut=40 / intra_refresh=0 / rc_lookahead=60 / rc=crf / mbtree=0 / crf=16.5000 / qcomp=0.80 / qpmin=0 / qpmax=69 / qpstep=4 / vbv_maxrate=62500 / vbv_bufsize=78125 / crf_max=0.0 / nal_hrd=none / filler=0 / ip_ratio=1.30 / pb_ratio=1.20 / aq=1:0.80
Language : English
Default : Yes
Forced : No
Matrix coefficients : BT.709
Audio #1
ID : 2
Format : AC-3
Format/Info : Audio Coding 3
Mode extension : CM (complete main)
Format settings, Endianness : Big
Codec ID : A_AC3
Duration : 1h 33mn
Bit rate mode : Constant
Bit rate : 640 Kbps
Channel(s) : 6 channels
Channel positions : Front: L C R, Side: L R, LFE
Sampling rate : 48.0 KHz
Bit depth : 16 bits
Compression mode : Lossy
Stream size : 427 MiB (7%)
Language : Russian
Default : Yes
Forced : No
Audio #2
ID : 3
Format : DTS
Format/Info : Digital Theater Systems
Codec ID : A_DTS
Duration : 1h 33mn
Bit rate mode : Constant
Bit rate : 755 Kbps
Channel(s) : 6 channels
Channel positions : Front: L C R, Side: L R, LFE
Sampling rate : 48.0 KHz
Bit depth : 24 bits
Compression mode : Lossy
Stream size : 503 MiB (9%)
Language : English
Default : No
Forced : No
Text #1
ID : 4
Format : UTF-8
Codec ID : S_TEXT/UTF8
Codec ID/Info : UTF-8 Plain Text
Language : Russian
Default : No
Forced : No
Text #2
ID : 5
Format : UTF-8
Codec ID : S_TEXT/UTF8
Codec ID/Info : UTF-8 Plain Text
Language : English
Default : No
Forced : No
Menu
00:00:00.000 : en:00:00:00.000
00:07:28.615 : en:00:07:28.615
00:16:15.183 : en:00:16:15.183
00:23:59.438 : en:00:23:59.438
00:31:19.544 : en:00:31:19.544
00:35:47.187 : en:00:35:47.187
00:43:11.631 : en:00:43:11.631
00:50:06.128 : en:00:50:06.128
01:00:34.589 : en:01:00:34.589
01:07:20.078 : en:01:07:20.078
01:16:39.970 : en:01:16:39.970
01:24:05.791 : en:01:24:05.791

Знаете ли Вы, что...

★ Фильм снят по мотивам повести Фёдора Достоевского «Двойник» (1846).
★ В 1996 по тому же роману Фёдора Достоевского и также с названием «Двойник» хотел снять фильм Роман Полански. Главные роли в фильме должны были достаться Джону Траволте, Изабеле Аджани, Джону Гудману и Жану Рено. Съемки должны были начаться в Париже в июне 1996 года. Однако за несколько дней до начала съемок Траволта, поссорившись с Полански из-за изменений в сценарии, покинул проект. А вскоре после этого работа над фильмом была прекращена.
★ Первая реплика персонажа Ясмин Пейдж – «Идиот!», что является названием романа Фёдора Достоевского.
★ Съёмки фильма стартовали 20 мая 2012 года и проходили в заброшенном офисе на окраине Лондона. Натурные съёмки проходили только ночью, остальные сцены в помещениях были сняты днём.

Скриншоты

Source vs Encode





Релиз от:
[Профиль] [ЛС]
Показать сообщения:    

Текущее время: Сегодня 22:09

Часовой пояс: GMT



Вы не можете начинать темы
Вы не можете отвечать на сообщения
Вы не можете редактировать свои сообщения
Вы не можете удалять свои сообщения
Вы не можете голосовать в опросах
Вы не можете прикреплять файлы к сообщениям
Вы не можете скачивать файлы