Двое во вселенной / La corrispondenza (2016) BDRemux 1080p от ExKinoRay | Лицензия

 
Автор Сообщение

Russian Mafia ®

Пол:

Стаж: 1 год 8 месяцев

Сообщений: 4257



Награды: 10 (Подробнее)

Top Releaser 3 (Количество: 1) Top Releaser 2 (Количество: 1) Mega Seeder 1 (Количество: 1)
Торрент-статистика

Создавать темы 18-Авг-2016 10:21

[Цитировать]

Информация о фильме
Название: Двое во вселенной
Оригинальное название: La corrispondenza
Год выхода: 2016
Жанр: Драма, мелодрама
Режиссер: Джузеппе Торнаторе
В ролях: Ольга Куриленко, Джереми Айронс, Шона МакДональд, Анна Савва, Джеймс Смилли, Саймон Микок, Джерри Квартенг, Род Гленн, Джеймс Блур, Ирина Кара
О фильме:
Эд и Эми — ученый и студентка, изучающие теорию струн и космических двойников, вселенную и параллельные измерения. Они — родственные души, созданные друг для друга. Их любовь не знает границ и расстояний. Но внезапно Эд исчезает. И все, что у нее остается — это регулярно приходящие от него послания. В какую игру втягивают Эми? Эксперимент ученого, решившего скрыться от мира? Или игру высших сил, посылающих ей любимого в чужих обличьях? Или она продолжает видеть свет погасшей звезды?

Страна: Италия
Студия: Business Location Sudtirol Alto Adige, Film Commission Torino-Piemonte, Ministero per i Beni e le Attività Culturali
Продолжительность: 02:02:19
Перевод: Дублированный | Лицензия R5
Файл
Кодек: x264
Качество: BDRemux 1080p
Видео: 1920x1080, 20.0 Mbit/s, 23.976 fps
Звук:
Аудио #01: 48 kHz, AC3, 5.1, 448 Kbps | Дублированный | R5 |
Аудио #02: 48 kHz, DTS-HD MA, 5.1, 1840 kbps | Оригинал |

MI

General
Unique ID : 234995804031621424313008407335972066231 (0xB0CA8BAB107BDC379EAB23CC796353B7)
Complete name : G:VideoThe.Correspondence.2016.D.BDREMUX.1080p.ExKinoRay.mkv
Format : Matroska
Format version : Version 4 / Version 2
File size : 19.0 GiB
Duration : 2 h 2 min
Overall bit rate mode : Variable
Overall bit rate : 22.3 Mb/s
Movie name : The.Correspondence.2016.D.BDREMUX.1080p.ExKinoRay
Encoded date : UTC 2016-08-18 09:16:33
Writing application : mkvmerge v8.3.0 ('Over the Horizon') 64bit
Writing library : libebml v1.3.1 + libmatroska v1.4.2
Video
ID : 1
Format : AVC
Format/Info : Advanced Video Codec
Format profile : High@L4.1
Format settings, CABAC : Yes
Format settings, ReFrames : 4 frames
Format settings, GOP : M=3, N=24
Codec ID : V_MPEG4/ISO/AVC
Duration : 2 h 2 min
Bit rate mode : Variable
Bit rate : 20.0 Mb/s
Maximum bit rate : 35.0 Mb/s
Width : 1 920 pixels
Height : 1 080 pixels
Display aspect ratio : 16:9
Frame rate mode : Constant
Frame rate : 23.976 (24000/1001) FPS
Standard : NTSC
Color space : YUV
Chroma subsampling : 4:2:0
Bit depth : 8 bits
Scan type : Progressive
Bits/(Pixel*Frame) : 0.402
Stream size : 17.0 GiB (90%)
Language : English
Default : No
Forced : No
Color range : Limited
Color primaries : BT.709
Transfer characteristics : BT.709
Matrix coefficients : BT.709
Audio #1
ID : 2
Format : AC-3
Format/Info : Audio Coding 3
Mode extension : CM (complete main)
Format settings, Endianness : Big
Codec ID : A_AC3
Duration : 2 h 1 min
Bit rate mode : Constant
Bit rate : 448 kb/s
Channel(s) : 6 channels
Channel positions : Front: L C R, Side: L R, LFE
Sampling rate : 48.0 kHz
Frame rate : 31.250 FPS (1536 spf)
Compression mode : Lossy
Stream size : 390 MiB (2%)
Title : DUB [R5]
Language : Russian
Default : Yes
Forced : No
Audio #2
ID : 3
Format : DTS
Format/Info : Digital Theater Systems
Format profile : MA / Core
Mode : 16
Format settings, Endianness : Big
Codec ID : A_DTS
Duration : 2 h 2 min
Bit rate mode : Variable / Constant
Bit rate : 1 840 kb/s / 1 509 kb/s
Channel(s) : 6 channels
Channel positions : Front: L C R, Side: L R, LFE
Sampling rate : 48.0 kHz
Frame rate : 93.750 FPS (512 spf)
Bit depth : 16 bits
Compression mode : Lossless / Lossy
Stream size : 1.57 GiB (8%)
Title : Original
Language : English
Default : No
Forced : No
Menu
00:00:00.000 : en:Chapter 01
00:07:28.072 : en:Chapter 02
00:16:56.348 : en:Chapter 03
00:24:10.615 : en:Chapter 04
00:28:58.653 : en:Chapter 05
00:35:40.972 : en:Chapter 06
00:43:19.555 : en:Chapter 07
00:55:04.134 : en:Chapter 08
01:00:54.025 : en:Chapter 09
01:13:10.844 : en:Chapter 10
01:21:01.982 : en:Chapter 11
01:27:02.759 : en:Chapter 12
01:35:46.157 : en:Chapter 13
01:41:21.116 : en:Chapter 14
01:48:46.311 : en:Chapter 15
01:54:49.340 : en:Chapter 16

Скриншоты

Релиз от: Автор релиза:
[Профиль] [ЛС]
Кто просматривает тему:

Показать сообщения:    

Текущее время: Сегодня 02:08

Часовой пояс: GMT



Вы не можете начинать темы
Вы не можете отвечать на сообщения
Вы не можете редактировать свои сообщения
Вы не можете удалять свои сообщения
Вы не можете голосовать в опросах
Вы не можете прикреплять файлы к сообщениям
Вы не можете скачивать файлы