Две женщины (Вера Глаголева) [2014, Россия, Франция, Латвия, Великобритания, драма, WEB-DL 1080p]

 
Автор Сообщение

TorrentFilm ®

Пол:

Стаж: 2 года

Сообщений: 7741



Награды: Нет

Торрент-статистика

Создавать темы 11-Мар-2015 00:01

[Цитировать]

Две женщины
Страна: Россия, Франция, Латвия, Великобритания
Жанр: драма
Год выпуска: 2014
Продолжительность: 01:39:29
Перевод: Не требуется
Cубтитры: нет
Режиссер: Вера Глаголева
В ролях: Анна Астраханцева, Рэйф Файнс, Александр Балуев, Сильви Тестю, Никита Волков, Анна Леванова, Лариса Малеванная, Бернд Мосс, Сергей Юшкевич, Василий Мищенко
Описание: Волевая молодая женщина состоит в браке с крупным землевладельцем. Но однажды она безответно влюбляется в наставника собственного сына.
Сэмпл: http://multi-up.com/1036571
Тип релиза: WEB-DL 1080p
Контейнер: MKV
Видео: MPEG4 Video (H264) 1920x1080p, ~ 4871 kbps, 25.00fps 0.094 bit/pixel
Аудио: AC-3, 6 канала, 48,0 КГц, ~384 kbps
Релиз от:

M.I.

Общее
Уникальный идентификатор : 218573810065516551397978499701911890284 (0xA46FC8DAA77B1B679E114C6815BCA96C)
Полное имя : D:\Две женщины\2_WOMEN_WEB_DL_1080p-BLUEBIRD.mkv
Формат : Matroska
Версия формата : Version 4 / Version 2
Размер файла : 3,73 Гбайт
Продолжительность : 1 ч. 39 м.
Общий поток : 5361 Кбит/сек
Название фильма : 2_WOMEN_WEB_DL_1080p-BLUEBIRD
Дата кодирования : UTC 2015-03-05 00:14:41
Программа кодирования : mkvmerge v7.1.0 ('Good Love') 64bit built on Jul 27 2014 13:06:55
Библиотека кодирования : libebml v1.3.0 + libmatroska v1.4.1
DURATION : 01:39:29.568000000
NUMBER_OF_FRAMES : 186549
NUMBER_OF_BYTES : 286539264
_STATISTICS_WRITING_APP : mkvmerge v7.1.0 ('Good Love') 64bit built on Jul 27 2014 13:06:55
_STATISTICS_WRITING_DATE_UTC : 2015-03-05 00:14:41
_STATISTICS_TAGS : BPS DURATION NUMBER_OF_FRAMES NUMBER_OF_BYTES
Видео
Идентификатор : 1
Формат : AVC
Формат/Информация : Advanced Video Codec
Профиль формата : High@L4.0
Параметр CABAC формата : Да
Параметр ReFrames формата : 4 кадра
Идентификатор кодека : V_MPEG4/ISO/AVC
Продолжительность : 1 ч. 39 м.
Битрейт : 4871 Кбит/сек
Ширина : 1920 пикселей
Высота : 1080 пикселей
Соотношение сторон : 16:9
Режим частоты кадров : Постоянный
Частота кадров : 25,000 кадров/сек
Цветовое пространство : YUV
Субдискретизация насыщенности : 4:2:0
Битовая глубина : 8 бит
Тип развёртки : Прогрессивная
Бит/(Пиксели*Кадры) : 0.094
Размер потока : 3,38 Гбайт (91%)
Заголовок : 2_WOMEN_WEB_DL_1080p-BLUEBIRD
Язык : English
Default : Да
Forced : Нет
Основные цвета : BT.709
Характеристики трансфера : BT.709
Коэффициенты матрицы : BT.709
colour_range : Limited
Аудио
Идентификатор : 2
Формат : AC-3
Формат/Информация : Audio Coding 3
Расширение режима : CM (complete main)
Параметр Endianness формата : Big
Идентификатор кодека : A_AC3
Продолжительность : 1 ч. 39 м.
Вид битрейта : Постоянный
Битрейт : 384 Кбит/сек
Каналы : 6 каналов
Расположение каналов : Front: L C R, Side: L R, LFE
Частота : 48,0 КГц
Битовая глубина : 16 бит
Метод сжатия : С потерями
Размер потока : 273 Мбайт (7%)
Заголовок : DD 5.1 @ 384 kbps
Язык : Russian
Default : Да
Forced : Нет
Меню
00:00:00.000 : en:1
00:06:01.000 : en:2
00:11:16.000 : en:3
00:16:47.000 : en:4
00:22:52.000 : en:5
00:29:06.000 : en:6
00:35:15.000 : en:7
00:40:35.000 : en:8
00:46:24.000 : en:9
00:52:19.000 : en:10
00:57:49.000 : en:11
01:03:45.000 : en:12
01:09:04.000 : en:13
01:15:09.000 : en:14
01:22:01.000 : en:15
01:28:24.000 : en:16
01:33:06.000 : en:17

Скриншоты

[Профиль] [ЛС]
Кто просматривает тему:

Показать сообщения:    

Текущее время: Сегодня 12:50

Часовой пояс: GMT



Вы не можете начинать темы
Вы не можете отвечать на сообщения
Вы не можете редактировать свои сообщения
Вы не можете удалять свои сообщения
Вы не можете голосовать в опросах
Вы не можете прикреплять файлы к сообщениям
Вы не можете скачивать файлы