Двенадцатое лето (Павел Фаттахутдинов) [2009, Россия, детский, приключения, семейный, HDTV 1080i]

 
Автор Сообщение

TorrentFilm ®

Пол:

Стаж: 1 год 11 месяцев

Сообщений: 7741



Награды: Нет

Торрент-статистика

Создавать темы 08-Апр-2016 10:39

[Цитировать]

Двенадцатое лето- -Страна: Россия
Жанр: детский, приключения, семейный
Год выпуска: 2009
Производство: «Кинокомпания "Снега"»
Продолжительность: 01:17:23
Оригинальная аудиодорожка: русский
Cубтитры: нет-Режиссер: Павел Фаттахутдинов-В ролях:
Иван Тушин, Анна Келина, Егор Коротаев, Арсений Гурин, Яков Гурин, Валерия Люкина, Юлия Тушина-Описание:
Он постоянно бежит. Домой — встречать отца с автобазы, где тот работает водителем. На речку — купаться с друзьями и искать чьи-то утонувшие наручные часы. По лесу — чтобы успокоить бушующее влюбленное сердце… Он постоянно бежит куда-то, а вслед двенадцатилетнему мальчишке летит оклик матери: «Мишка!..» Мишка не слышит — он спешит прожить свое двенадцатое лето.-Возраст: 12+-Качество: HDTV (1080i)
Формат: TS
Видео кодек: AVC
Аудио кодек: MPEG Audio

Видео: AVC, 1920 х 1080 (16:9), 25,000 кадр/сек, 3 528 Кбит/сек, 0.068 bit/pixel
Аудио: MPEG Audio 2, 48000 Hz, 192 Kbps, 2 канала
-

MediaInfo

General
ID : 1 (0x1)
Complete name : D:\Раздачи\Двенадцатое лето HDTV (1080i)\Dvenadcatoe.leto.2009.HDTV.1080i.Files-x.ts
Format : MPEG-TS
File size : 2.23 GiB
Duration : 1h 17mn
Overall bit rate mode : Variable
Overall bit rate : 4 120 Kbps
Video
ID : 256 (0x100)
Menu ID : 1234 (0x4D2)
Format : AVC
Format/Info : Advanced Video Codec
Format profile : Main@L4
Format settings, CABAC : Yes
Format settings, ReFrames : 1 frame
Codec ID : 27
Duration : 1h 17mn
Bit rate : 3 528 Kbps
Width : 1 920 pixels
Height : 1 080 pixels
Display aspect ratio : 16:9
Frame rate : 25.000 fps
Standard : Component
Color space : YUV
Chroma subsampling : 4:2:0
Bit depth : 8 bits
Scan type : Progressive
Bits/(Pixel*Frame) : 0.068
Stream size : 1.91 GiB (86%)
Color range : Limited
Audio #1
ID : 257 (0x101)
Menu ID : 1234 (0x4D2)
Format : MPEG Audio
Format version : Version 1
Format profile : Layer 2
Codec ID : 3
Duration : 1h 17mn
Bit rate mode : Constant
Bit rate : 192 Kbps
Channel(s) : 2 channels
Sampling rate : 48.0 KHz
Compression mode : Lossy
Stream size : 106 MiB (5%)
Language : English
Audio #2
ID : 258 (0x102)
Menu ID : 1234 (0x4D2)
Format : MPEG Audio
Format version : Version 1
Format profile : Layer 2
Codec ID : 3
Duration : 1h 17mn
Bit rate mode : Constant
Bit rate : 192 Kbps
Channel(s) : 2 channels
Sampling rate : 48.0 KHz
Compression mode : Lossy
Stream size : 106 MiB (5%)
Language : English

Скриншоты

-Раздаю до первых 5-ти скачавших, на раздачи не возвращаюсь...-
[Профиль] [ЛС]
Показать сообщения:    

Текущее время: Сегодня 04:59

Часовой пояс: GMT



Вы не можете начинать темы
Вы не можете отвечать на сообщения
Вы не можете редактировать свои сообщения
Вы не можете удалять свои сообщения
Вы не можете голосовать в опросах
Вы не можете прикреплять файлы к сообщениям
Вы не можете скачивать файлы