Два больших пальца вверх / Chung fung che (2015) BDRip 720p | L1

 
Автор Сообщение

BOSS ®

Пол:

Стаж: 3 года 2 месяца

Сообщений: 8593

Откуда: ODESSA



Награды: 22 (Подробнее)

Top Keeper 2 (Количество: 1) Mega Seeder 4 (Количество: 1) Top Seeder 3 (Количество: 1)
Торрент-статистика

Создавать темы 07-Дек-2017 07:55

[Цитировать]

Информация о фильме
Название: Два больших пальца вверх
Оригинальное название: Chung fung che / Two Thumbs Up
Год выхода: 2015
Жанр: боевик, комедия, драма
Режиссер: Хо Люн Лау
В ролях: Френсис Ын, Саймон Ям, Лео Ку, Патрик Там, Марк Чэн, Сисюань Чень, Филип Конг, Рок Джи, Цзименг Чжуан, Джейми Чонг, Сьюзан Ям-Ям Шоу, Джек Као, Винг-Чонг Лау, Алан Мак, Феликс Чонг
О фильме:
Большой Ф, который только что вышел из тюряги начинает искать своих старых товарищей. Как выясняется, Большой Ф хочет ограбить грузовик, перевозящий за границу деньги... Вот только грузовик этот, на самом деле - катафалк, а деньги упакованы - в трупы да еще и другая банда оказалась заинтересованной в этом деле.
ПРИСУТСТВУЕТ НЕНОРМАТИВНАЯ ЛЕКСИКА

Страна: Гонконг
Студия: Emperor Film Production, Huace Pictures, iQIYI Motion Pictures, Sil-Metropole Organisation
Продолжительность: 01:42:33
Перевод: Любительский одноголосный, закадровый [den904]
Перевод: Skyworker
Файл
Кодек: H.264
Качество: BDRip 720p
Видео: MPEG-4 / AVC, 1280х544 (2.35:1), 24 fps ~ 5015 Kbps
Звук:
АС3, 48 KHz, 2 ch ~ 192 Kb/s (русский)
AC3, 48 KHz, 6 ch ~ 448 Kb/s (китайский традиц.)
Субтитры: английские, китайские

MI:

Общее
Уникальный идентификатор : 220339172306759372172406998932750688772 (0xA5C3C7EEBEB454508EA42E5219416204)
Полное имя : Q:TorFTwo.Thumbs.Up.2015.720p.mkv
Формат : Matroska
Версия формата : Version 2
Размер файла : 4,05 Гбайт
Продолжительность : 1 ч. 42 м.
Общий поток : 5658 Кбит/сек
Название фильма : Jubowo @ WiKi
Дата кодирования : UTC 2017-12-07 05:29:43
Программа кодирования : mkvmerge v5.4.0 ('Piper') built on Mar 10 2012 13:34:39
Библиотека кодирования : libebml v1.2.3 + libmatroska v1.3.0
DURATION : 01:40:42.790000000
NUMBER_OF_FRAMES : 1452
NUMBER_OF_BYTES : 34454
_STATISTICS_WRITING_APP : mkvmerge v7.9.0 ('Birds') 64bit
_STATISTICS_WRITING_DATE_UTC : 2015-06-10 15:11:30
_STATISTICS_TAGS : BPS DURATION NUMBER_OF_FRAMES NUMBER_OF_BYTES
Видео
Идентификатор : 1
Формат : AVC
Формат/Информация : Advanced Video Codec
Профиль формата : High@L4.1
Параметр CABAC формата : Да
Параметр ReFrames формата : 12 кадров
Идентификатор кодека : V_MPEG4/ISO/AVC
Продолжительность : 1 ч. 42 м.
Битрейт : 5016 Кбит/сек
Ширина : 1280 пикселей
Высота : 544 пикселя
Соотношение сторон : 2,35:1
Частота кадров : 24,000 кадра/сек
Цветовое пространство : YUV
Субдискретизация насыщенности : 4:2:0
Битовая глубина : 8 бит
Тип развёртки : Прогрессивная
Бит/(Пиксели*Кадры) : 0.300
Размер потока : 3,51 Гбайт (87%)
Библиотека кодирования : x264 core 129 r2245+704+36 8e61944 tMod+MixAQ [8-bit@4:2:0 X86_64]
Настройки программы : cabac=1 / ref=12 / deblock=1:-3:-3 / analyse=0x3:0x133 / me=umh / subme=11 / psy=1 / fade_compensate=0.00 / psy_rd=1.05:0.10 / mixed_ref=1 / me_range=32 / chroma_me=1 / trellis=2 / 8x8dct=1 / cqm=0 / deadzone=21,11 / fast_pskip=0 / chroma_qp_offset=-3 / threads=18 / lookahead_threads=3 / sliced_threads=0 / nr=0 / decimate=0 / interlaced=0 / bluray_compat=0 / constrained_intra=0 / fgo=0 / bframes=10 / b_pyramid=2 / b_adapt=2 / b_bias=0 / direct=3 / weightb=1 / open_gop=0 / weightp=2 / keyint=250 / keyint_min=24 / scenecut=40 / intra_refresh=0 / rc_lookahead=80 / rc=2pass / mbtree=1 / bitrate=5016 / ratetol=1.0 / qcomp=0.70 / qpmin=0 / qpmax=69 / qpstep=4 / cplxblur=20.0 / qblur=0.5 / ip_ratio=1.40 / aq=1 / aq-strength=0.85 / aq-sensitivity=10.00 / aq-ifactor=1.00 / aq-pfactor=1.00 / aq-bfactor=1.00 / aq2=0
Язык : Chinese
Default : Да
Forced : Нет
DURATION : 01:42:32.959000000
NUMBER_OF_FRAMES : 147671
NUMBER_OF_BYTES : 3858162748
_STATISTICS_WRITING_APP : mkvmerge v7.9.0 ('Birds') 64bit
_STATISTICS_WRITING_DATE_UTC : 2015-06-10 15:11:30
_STATISTICS_TAGS : BPS DURATION NUMBER_OF_FRAMES NUMBER_OF_BYTES
Аудио #1
Идентификатор : 2
Формат : AC-3
Формат/Информация : Audio Coding 3
Расширение режима : CM (complete main)
Идентификатор кодека : A_AC3
Продолжительность : 1 ч. 42 м.
Вид битрейта : Постоянный
Битрейт : 192 Кбит/сек
Каналы : 2 канала
Расположение каналов : Front: L R
Частота : 48,0 КГц
Битовая глубина : 16 бит
Метод сжатия : С потерями
Размер потока : 141 Мбайт (3%)
Заголовок : den904
Язык : Russian
Default : Да
Forced : Нет
Аудио #2
Идентификатор : 3
Формат : AC-3
Формат/Информация : Audio Coding 3
Расширение режима : CM (complete main)
Идентификатор кодека : A_AC3
Продолжительность : 1 ч. 42 м.
Вид битрейта : Постоянный
Битрейт : 448 Кбит/сек
Каналы : 6 каналов
Расположение каналов : Front: L C R, Side: L R, LFE
Частота : 48,0 КГц
Битовая глубина : 16 бит
Метод сжатия : С потерями
Размер потока : 329 Мбайт (8%)
Заголовок : Mandarin
Язык : Chinese
Default : Нет
Forced : Нет
Текст #1
Идентификатор : 4
Формат : UTF-8
Идентификатор кодека : S_TEXT/UTF8
Идентификатор кодека/Информация : UTF-8 Plain Text
Заголовок : Subtitle eng [BD]
Язык : English
Default : Нет
Forced : Нет
Текст #2
Идентификатор : 5
Формат : UTF-8
Идентификатор кодека : S_TEXT/UTF8
Идентификатор кодека/Информация : UTF-8 Plain Text
Заголовок : Subtitle eng
Язык : English
Default : Нет
Forced : Нет
Текст #3
Идентификатор : 6
Формат : UTF-8
Идентификатор кодека : S_TEXT/UTF8
Идентификатор кодека/Информация : UTF-8 Plain Text
Заголовок : Simplified
Язык : Chinese
Default : Да
Forced : Нет
Текст #4
Идентификатор : 7
Формат : UTF-8
Идентификатор кодека : S_TEXT/UTF8
Идентификатор кодека/Информация : UTF-8 Plain Text
Заголовок : Traditional
Язык : Chinese
Default : Нет
Forced : Нет
Меню
00:00:00.000 : en:00:00:00.000
00:12:08.041 : en:00:12:08.041
00:20:37.166 : en:00:20:37.166
00:29:25.250 : en:00:29:25.250
00:38:49.083 : en:00:38:49.083
00:46:36.916 : en:00:46:36.916
00:50:20.166 : en:00:50:20.166
01:00:31.791 : en:01:00:31.791
01:08:53.125 : en:01:08:53.125
01:19:50.666 : en:01:19:50.666
01:27:32.250 : en:01:27:32.250
01:35:01.875 : en:01:35:01.875

Скриншоты

СЭМПЛ
[Профиль] [ЛС]
Кто просматривает тему:

Показать сообщения:    

Текущее время: Сегодня 14:54

Часовой пояс: GMT



Вы не можете начинать темы
Вы не можете отвечать на сообщения
Вы не можете редактировать свои сообщения
Вы не можете удалять свои сообщения
Вы не можете голосовать в опросах
Вы не можете прикреплять файлы к сообщениям
Вы не можете скачивать файлы