Два богатыря (Александр Давыдов) [1989 г., Мультфильм, SATRip]

 
Автор Сообщение

TorrentFilm ®

Пол:

Стаж: 2 года

Сообщений: 7741



Награды: Нет

Торрент-статистика

Создавать темы 03-Янв-2016 00:05

[Цитировать]

Два богатыряСтрана: СССР
Жанр: мультфильм
Продолжительность: 00:09:46
Год выпуска: 1989
Выпущено: «Союзмультфильм»
Режиссёр: Александр Давыдов
Русские субтитры: нетОписание:Умело сочетая в себе сказки русского и казахского народов, мультфильм рассказывает историю вечной борьбы добра со злом.
Из своих стран на поиски возлюбленных выехали русский богатырь Иван и казахский воин Батыр. Иван хочет освободить из плена Кощея Бессмертного красну девицу Марью, Батыр же едет за красавицей Алтыншаш, похищенной у него злым дэвом. Но так получилось, что дороги Ивана и Батыра пересеклись, их кони столкнулись, и два богатыря начали выяснять отношения на мечах. В пылу сражения оба вспоминают, что у них ещё есть дела, и договариваются встретиться на этом самом месте после того, как доведут дела до конца. Но оба сбиваются с пути...
Мультфильм «Два богатыря» – это невероятные приключения, юмор, отвага, доблесть и, конечно, удивительная развязка любовной линии.

Режиссёр и команда

Режиссёр Александр Давыдов
сценаристы: Заурия Нурумбетова, Тамара Чуганова
художник-постановщик: Елизавета Жарова
художники: Сергей Маракасов, Анна Атаманова, Татьяна Макарова, Любовь Горелова
аниматоры: Александр Дорогов, Александр Маркелов, Виктор Арсентьев, Владимир Шевченко, Галина Золотовская
композитор: Нина Савичева
оператор: Людмила Крутовская
звукорежиссёры: В. Венгеровский, Сергей Карпов
редактор: Наталья Абрамова
монтажёр: Елена Белявская
роли озвучивали: Мария Виноградова (Баба-Яга), Наталья Ченчик (Алтыншаш), Людмила Гнилова (Марья), Александр Малов (Батыр), Дмитрий Полонский (Иван), Павел Смеян (Кощей Бессмертный, смерч), Вячеслав Стёпин (дэв).
текст песен (стихов): А. Юшко
Качество: SATRip
Формат: AVI
Видео: 720x544 (1.32:1), 25 fps, XviD build 64 ~2380 kbps avg, 0.24 bit/pixel
Аудио: 48 kHz, AC3 Dolby Digital, 2/0 (L,R) ch, ~192 kbps
Субтитры: отсутствуют

Подробные технические данные

ОбщееПолное имя : D:\Мульты\Dva_bogatyr'a_(1989,_SATRip).aviФормат : AVIФормат/Информация : Audio Video InterleaveРазмер файла : 181 МбайтПродолжительность : 9 м. 46 с.Общий поток : 2583 Кбит/секПрограмма кодирования : VirtualDubMod 1.5.10.2 (build 2540/release)Библиотека кодирования : VirtualDubMod build 2540/release
ВидеоИдентификатор : 0Формат : MPEG-4 VisualПрофиль формата : Advanced Simple@L5Параметр BVOP формата : 2Параметр QPel формата : НетПараметр GMC формата : Без точки переходаПараметр матрицы формата : ВыборочнаяИдентификатор кодека : XVIDИдентификатор кодека/Подсказка : XviDПродолжительность : 9 м. 46 с.Битрейт : 2381 Кбит/секШирина : 720 пикселейВысота : 544 пикселяСоотношение сторон : 4:3Частота кадров : 25,000 кадров/секЦветовое пространство : YUVСубдискретизация насыщенности : 4:2:0Битовая глубина : 8 битТип развёртки : ПрогрессивнаяМетод сжатия : С потерямиБит/(Пиксели*Кадры) : 0.243Размер потока : 166 Мбайт (92%)Библиотека кодирования : XviD 64
АудиоИдентификатор : 1Формат : AC-3Формат/Информация : Audio Coding 3Расширение режима : CM (complete main)Идентификатор кодека : 2000Продолжительность : 9 м. 46 с.Вид битрейта : ПостоянныйБитрейт : 192 Кбит/секКаналы : 2 каналаРасположение каналов : Front: L RЧастота : 48,0 КГцБитовая глубина : 16 битМетод сжатия : С потерямиРазмер потока : 13,4 Мбайт (7%)Выравнивание : Разделение по промежуткамПродолжительность промежутка : 40 мс. (1,00 видеокадр)Время предзагрузки промежутка : 500 мс.

Скриншоты

-Сравнение с другой раздачей:
Два богатыря (kibela, TVRip, 640x496, ~1900 kbps; mp3 96 kbps, mono) http://screenshotcomparison.com/comparison/41968
-
За источник благодарности получает SLuMeP - Все раздачи
[Профиль] [ЛС]
Кто просматривает тему:

Показать сообщения:    

Текущее время: Сегодня 07:14

Часовой пояс: GMT



Вы не можете начинать темы
Вы не можете отвечать на сообщения
Вы не можете редактировать свои сообщения
Вы не можете удалять свои сообщения
Вы не можете голосовать в опросах
Вы не можете прикреплять файлы к сообщениям
Вы не можете скачивать файлы