Да кто ж он, блин, этот Артур Фогель? / Who the F**K Is Arthur Fogel (Рон Чэпмен / Ron Chapman) [2013, Документальный, HDTVRip 720p]

 
Автор Сообщение

TorrentFilm ®

Пол:

Стаж: 2 года

Сообщений: 7741



Награды: Нет

Торрент-статистика

Создавать темы 12-Мар-2015 00:02

[Цитировать]

Да кто ж он, блин, этот Артур Фогель? / Who the F**K Is Arthur Fogel
Год выпуска: 2013
Страна: США
Студия: Chapman Productions
Жанр: Документальный
Продолжительность: 01:39:32
Перевод: Профессиональный (одноголосый закадровый)
Доп. инфо о переводе: Озвучено студией Ново Медиа по заказу Амедиа ТВ 2015 год
Режиссер: Рон Чэпмен / Ron Chapman
Описание: Его имя мало кто знает, у него не берут автографы, но U2, Madonna, The Police, Lady Gaga, Rush и многие другие звезды из мира шоу-бизнеса во многом обязаны своей славой именно ему. Документальный фильм об одном из самых известных музыкальных промоутеров современности - Артуре Фогеле.
IMDb
Сэмпл: Скачать
Тип релиза: HDTVRip 720p
Контейнер: MKV
Видео: MPEG-4 AVC, 3780 Кбит/с, 1280x720
Аудио: Русский АС3, 6 ch, 384 Кбит/с
Аудио 2: Английский MP2, 2 ch, 192 Кбит/с

MediaInfo

GeneralUnique ID : 206578615096770972960244307566587555622 (0x9B699814DF6724D188567435FAE42F26)Complete name : F:\Наладки\Новая папка (2)\Кто такой Артур Фогель_720p.mkvFormat : MatroskaFormat version : Version 4 / Version 2File size : 3.02 GiBDuration : 1h 39mnOverall bit rate : 4 356 KbpsEncoded date : UTC 2015-03-11 13:19:18Writing application : mkvmerge v6.6.0 ('The Edge Of The In Between') built on Dec 1 2013 17:55:00Writing library : libebml v1.3.0 + libmatroska v1.4.1
VideoID : 1Format : AVCFormat/Info : Advanced Video CodecFormat profile : High@L4.1Format settings, CABAC : YesFormat settings, ReFrames : 9 framesCodec ID : V_MPEG4/ISO/AVCDuration : 1h 39mnBit rate : 3 780 KbpsWidth : 1 280 pixelsHeight : 720 pixelsDisplay aspect ratio : 16:9Frame rate mode : ConstantFrame rate : 25.000 fpsColor space : YUVChroma subsampling : 4:2:0Bit depth : 8 bitsScan type : ProgressiveBits/(Pixel*Frame) : 0.164Stream size : 2.56 GiB (85%)Writing library : x264 core 142 r2431 ac76440Encoding settings : cabac=1 / ref=9 / deblock=1:-3:-3 / analyse=0x3:0x133 / me=umh / subme=9 / psy=1 / psy_rd=1.00:0.10 / mixed_ref=1 / me_range=32 / chroma_me=1 / trellis=2 / 8x8dct=1 / cqm=0 / deadzone=21,11 / fast_pskip=1 / chroma_qp_offset=-3 / threads=6 / lookahead_threads=1 / sliced_threads=0 / nr=0 / decimate=0 / interlaced=0 / bluray_compat=0 / constrained_intra=0 / bframes=12 / b_pyramid=2 / b_adapt=2 / b_bias=0 / direct=3 / weightb=1 / open_gop=0 / weightp=2 / keyint=250 / keyint_min=23 / scenecut=40 / intra_refresh=0 / rc=2pass / mbtree=0 / bitrate=3780 / ratetol=1.0 / qcomp=0.60 / qpmin=0 / qpmax=69 / qpstep=4 / cplxblur=20.0 / qblur=0.5 / ip_ratio=1.40 / pb_ratio=1.30 / aq=1:1.00Language : EnglishDefault : YesForced : No
Audio #1ID : 2Format : AC-3Format/Info : Audio Coding 3Mode extension : CM (complete main)Format settings, Endianness : BigCodec ID : A_AC3Duration : 1h 39mnBit rate mode : ConstantBit rate : 384 KbpsChannel(s) : 6 channelsChannel positions : Front: L C R, Side: L R, LFESampling rate : 48.0 KHzBit depth : 16 bitsCompression mode : LossyDelay relative to video : 118msStream size : 273 MiB (9%)Language : RussianDefault : YesForced : No
Audio #2ID : 3Format : MPEG AudioFormat version : Version 1Format profile : Layer 2Mode : Joint stereoMode extension : Intensity Stereo + MS StereoCodec ID : A_MPEG/L2Codec ID/Hint : MP2Duration : 1h 39mnBit rate mode : ConstantBit rate : 192 KbpsChannel(s) : 2 channelsSampling rate : 48.0 KHzCompression mode : LossyDelay relative to video : 166msStream size : 136 MiB (4%)Language : EnglishDefault : NoForced : No
[Профиль] [ЛС]
Кто просматривает тему:

Показать сообщения:    

Текущее время: Сегодня 12:31

Часовой пояс: GMT



Вы не можете начинать темы
Вы не можете отвечать на сообщения
Вы не можете редактировать свои сообщения
Вы не можете удалять свои сообщения
Вы не можете голосовать в опросах
Вы не можете прикреплять файлы к сообщениям
Вы не можете скачивать файлы