Да и да (Валерия Гай Германика) [2014, Россия, драма, WEB-DL 1080p] + Original Rus

 
Автор Сообщение

TorrentFilm ®

Пол:

Стаж: 2 года

Сообщений: 7741



Награды: Нет

Торрент-статистика

Создавать темы 14-Июл-2015 00:10

[Цитировать]

Да и да
Страна: Россия
Жанр: драма
Год выпуска: 2014
Продолжительность: 01:57:25
Перевод: Не требуется
Cубтитры: нет
Оригинальная аудиодорожка: русский
Режиссер: Валерия Гай Германика
В ролях: Агния Кузнецова, Александр Виноградов, Владимир Дубосарский, Александр Горчилин, Оксана Земляникова, Юрий Трубин, Лариса Баранова, Николай Шептулин.
Описание: Паренек - начинающий современный художник, девушка - начинающая школьная учительница. Случайное сближение кладет начало горячей и короткой любви. Некрасивая случайность заставляет расстаться. Но однажды увидев мир глазами любимого, учительница вернулась в свой прежний мир художницей, и не может избавиться от нового зрения, от дара живописца: непрошеной памяти о несложившейся любви.
Сэмпл: http://multi-up.com/1057853
Тип релиза: WEB-DL 1080p
Контейнер: MKV
Видео: 1920 x 1038p (1,85:1) 24 fps, AVC Main@L4.0~ 4793 kbps, 0.100 bit/pixel
Аудио: AC-3, 6 канала, 48,0 КГц, ~384 kbps
Релиз :

M.I

Общее
Уникальный идентификатор : 214364893687382694554200802386167992004 (0xA1452D414F31DF6894F61DA8ABC00EC4)
Полное имя : D:\Да и да\DAiDA_WEB_DL_1080p-BLUEBIRD.mkv
Формат : Matroska
Версия формата : Version 4 / Version 2
Размер файла : 4,33 Гбайт
Продолжительность : 1 ч. 57 м.
Общий поток : 5283 Кбит/сек
Название фильма : CHILD44_WEB_DL_1080p-BLUEBIRD
Дата кодирования : UTC 2015-07-09 21:34:25
Программа кодирования : mkvmerge v7.1.0 ('Good Love') 64bit built on Jul 27 2014 13:06:55
Библиотека кодирования : libebml v1.3.0 + libmatroska v1.4.1
DURATION : 01:57:25.728000000
NUMBER_OF_FRAMES : 220179
NUMBER_OF_BYTES : 338194944
_STATISTICS_WRITING_APP : mkvmerge v7.1.0 ('Good Love') 64bit built on Jul 27 2014 13:06:55
_STATISTICS_WRITING_DATE_UTC : 2015-07-09 21:34:25
_STATISTICS_TAGS : BPS DURATION NUMBER_OF_FRAMES NUMBER_OF_BYTES
Видео
Идентификатор : 1
Формат : AVC
Формат/Информация : Advanced Video Codec
Профиль формата : High@L4.0
Параметр CABAC формата : Да
Параметр ReFrames формата : 4 кадра
Идентификатор кодека : V_MPEG4/ISO/AVC
Продолжительность : 1 ч. 57 м.
Битрейт : 4793 Кбит/сек
Ширина : 1920 пикселей
Высота : 1038 пикселей
Соотношение сторон : 1,85:1
Режим частоты кадров : Постоянный
Частота кадров : 24,000 кадра/сек
Цветовое пространство : YUV
Субдискретизация насыщенности : 4:2:0
Битовая глубина : 8 бит
Тип развёртки : Прогрессивная
Бит/(Пиксели*Кадры) : 0.100
Размер потока : 3,93 Гбайт (91%)
Заголовок : DAiDA_WEB_DL_1080p-BLUEBIRD
Язык : Russian
Default : Да
Forced : Нет
Основные цвета : BT.709
Характеристики трансфера : BT.709
Коэффициенты матрицы : BT.709
colour_range : Limited
Аудио
Идентификатор : 2
Формат : AC-3
Формат/Информация : Audio Coding 3
Расширение режима : CM (complete main)
Параметр Endianness формата : Big
Идентификатор кодека : A_AC3
Продолжительность : 1 ч. 57 м.
Вид битрейта : Постоянный
Битрейт : 384 Кбит/сек
Каналы : 6 каналов
Расположение каналов : Front: L C R, Side: L R, LFE
Частота : 48,0 КГц
Битовая глубина : 16 бит
Метод сжатия : С потерями
Размер потока : 323 Мбайт (7%)
Заголовок : [ORIGINAL] DD 5.1 @ 384 kbps
Язык : Russian
Default : Да
Forced : Нет
Меню
00:00:00.000 : en:Глава 1
00:05:34.000 : en:Глава 2
00:10:01.000 : en:Глава 3
00:17:16.000 : en:Глава 4
00:21:07.000 : en:Глава 5
00:29:59.000 : en:Глава 6
00:34:22.000 : en:Глава 7
00:39:59.000 : en:Глава 8
00:46:21.000 : en:Глава 9
00:51:40.000 : en:Глава 10
00:56:34.000 : en:Глава 11
01:01:35.000 : en:Глава 12
01:05:36.000 : en:Глава 13
01:10:34.000 : en:Глава 14
01:14:46.000 : en:Глава 15
01:19:31.000 : en:Глава 16
01:22:56.000 : en:Глава 17
01:28:19.000 : en:Глава 18
01:33:39.000 : en:Глава 19
01:37:49.000 : en:Глава 20
01:41:43.000 : en:Глава 21
01:47:19.000 : en:Глава 22

Скриншоты

[Профиль] [ЛС]
Показать сообщения:    

Текущее время: Сегодня 14:34

Часовой пояс: GMT



Вы не можете начинать темы
Вы не можете отвечать на сообщения
Вы не можете редактировать свои сообщения
Вы не можете удалять свои сообщения
Вы не можете голосовать в опросах
Вы не можете прикреплять файлы к сообщениям
Вы не можете скачивать файлы