Да здравствует Цезарь! / Hail, Caesar! (2016) BDRip 1080p | D | Лицензия

 
Автор Сообщение

достали все ®

Пол:

Стаж: 1 год 8 месяцев

Сообщений: 6565



Награды: 12 (Подробнее)

Mega Seeder 2 (Количество: 1) Top Releaser 3 (Количество: 1) Top Releaser 2 (Количество: 1)
Торрент-статистика

Создавать темы 11-Июн-2016 21:58

[Цитировать]

«Lights. Camera. Abduction»
Информация о фильме
Название: Да здравствует Цезарь!
Оригинальное название: Hail, Caesar!
Год выхода: 2016
Жанр: Комедия, детектив
Режиссер: Итан Коэн, Джоэл Коэн
В ролях: Джош Бролин, Джордж Клуни, Олден Эренрайк, Рэйф Файнс, Скарлетт Йоханссон, Тильда Суинтон, Фрэнсис МакДорманд, Ченнинг Татум, Джона Хилл, Вероника Осорио
О фильме:
Добро пожаловать в Голливуд — империю блеска, роскоши и порока. Здесь обитают кумиры миллионов. Что ни день — пиршество для светских хроникеров. И вот однажды исчезает исполнитель главной роли в фильме «Да здравствует Цезарь!». Ни жена, ни многочисленные любовницы не знают, где он. И теперь продюсера студии ждет веселый денек, ведь он должен найти звезду раньше репортеров…

Страна: Великобритания, США, Япония
Студия: Mike Zoss Productions, Dentsu, Working Title Films
Продолжительность: 01:46:06
Перевод: Профессиональный (полное дублирование)[BD CEE]
Файл
Качество: BDRip 1080p
Кодек: MPEG-4 AVC
Видео: 1920x1036 (1,85:1), 23,976 fps, MPEG-4 AVC ~ 13.1 Mbps avg, 0.275 bit/pixel
Звук #1: AC3, 48 kHz, 6 ch, ~448.00 kbps avg | русский | Профессиональный (полное дублирование)[BD CEE]
Звук #2: DTS, 48 kHz, 6 ch, ~1509.00 kbps avg | английский | Оригинал
Субтитры: Русские (forced, full), английские (Full, SDH, SDH Colored)
Семпл

Видеоряд от HDChina

Hail,Caesar!.2016.1080p.BluRay.x264.DTS-HDChina
SOURCE TYPE.....: 1080p AVC DTS-HD MA 5.1
ViDEO BiTRATE...: x264 L4.1 High @ 13100 kbps
FRAME RATE......: 23.976 fps
AUDiO1..........: English DTS 5.1 @ 1509 kbps
RESOLUTiON......: 1920 x 1036
SUBTiTLE........: English SDH
ENCODER ........: AVS @ HDChina
----------X264 iNFO------------
x264 [info]: frame I:1378 Avg QP:16.35 size:141512
x264 [info]: frame P:31409 Avg QP:17.40 size: 50717
x264 [info]: frame B:119841 Avg QP:18.78 size: 22923
x264 [info]: consecutive B-frames: 1.6% 5.0% 4.4% 14.2% 18.3% 37.9% 9.2% 4.2% 5.3%

Инфо-файл

Общее
Уникальный идентификатор : 174140929688706960225180979714193282563 (0x830252B6E25A58A6AF70427010EED603)
Полное имя : D:TorrentsЗавершенныеHail.Caeser!2016.Blu.Ray.1080p.x264.HDChina.mkv
Формат : Matroska
Версия формата : Version 4 / Version 2
Размер файла : 11,2 Гбайт
Продолжительность : 1 ч. 46 м.
Общий поток : 15,1 Мбит/сек
Название фильма : Hail.Caeser!2016.Blu.Ray.1080p.x264-HDChina
Дата кодирования : UTC 2016-06-11 18:21:12
Программа кодирования : mkvmerge v8.3.0 ('Over the Horizon') 64bit
Библиотека кодирования : libebml v1.3.1 + libmatroska v1.4.2
Обложка : Yes
Attachments : cover.jpg
Видео
Идентификатор : 1
Формат : AVC
Формат/Информация : Advanced Video Codec
Профиль формата : High@L4.1
Параметр CABAC формата : Да
Параметр ReFrames формата : 4 кадра
Идентификатор кодека : V_MPEG4/ISO/AVC
Продолжительность : 1 ч. 46 м.
Битрейт : 13,1 Мбит/сек
Ширина : 1920 пикселей
Высота : 1036 пикселей
Соотношение сторон : 1,85:1
Режим частоты кадров : Постоянный
Частота кадров : 23,976 (24000/1001) кадра/сек
Цветовое пространство : YUV
Субдискретизация насыщенности : 4:2:0
Битовая глубина : 8 бит
Тип развёртки : Прогрессивная
Бит/(Пиксели*Кадры) : 0.275
Размер потока : 9,71 Гбайт (87%)
Заголовок : Hail,Caesar!.2016.1080p.BluRay.x264.DTS-HDChina
Библиотека кодирования : x264 core 148 r2665kMod a01e339
Настройки программы : cabac=1 / ref=4 / deblock=1:-3:-3 / analyse=0x3:0x133 / me=umh / subme=11 / psy=1 / fade_compensate=0.00 / psy_rd=0.85:0.00 / mixed_ref=1 / me_range=48 / chroma_me=1 / trellis=2 / 8x8dct=1 / cqm=0 / deadzone=21,11 / fast_pskip=0 / chroma_qp_offset=-2 / threads=24 / lookahead_threads=4 / sliced_threads=0 / nr=0 / decimate=0 / interlaced=0 / bluray_compat=0 / constrained_intra=0 / fgo=0 / bframes=8 / b_pyramid=2 / b_adapt=2 / b_bias=0 / direct=3 / weightb=1 / open_gop=0 / weightp=2 / keyint=240 / keyint_min=24 / scenecut=40 / intra_refresh=0 / rc=2pass / mbtree=0 / bitrate=13100 / ratetol=1.0 / qcomp=0.70 / qpmin=0 / qpmax=69 / qpstep=4 / cplxblur=20.0 / qblur=0.5 / ip_ratio=1.20 / pb_ratio=1.20 / aq=3:0.80
Язык : English
Default : Да
Forced : Нет
Аудио #1
Идентификатор : 2
Формат : AC-3
Формат/Информация : Audio Coding 3
Расширение режима : CM (complete main)
Параметр Endianness формата : Big
Идентификатор кодека : A_AC3
Продолжительность : 1 ч. 46 м.
Вид битрейта : Постоянный
Битрейт : 448 Кбит/сек
Каналы : 6 каналов
Расположение каналов : Front: L C R, Side: L R, LFE
Частота : 48,0 КГц
Частота кадров : 31,250 кадров/сек (1536 spf)
Метод сжатия : С потерями
Размер потока : 340 Мбайт (3%)
Заголовок : Dub | DD 5.1 @ 448 kbps - Blu Rya CEE
Язык : Russian
Default : Да
Forced : Нет
Аудио #2
Идентификатор : 3
Формат : DTS
Формат/Информация : Digital Theater Systems
Режим : 16
Параметр Endianness формата : Big
Идентификатор кодека : A_DTS
Продолжительность : 1 ч. 46 м.
Вид битрейта : Постоянный
Битрейт : 1509 Кбит/сек
Каналы : 6 каналов
Расположение каналов : Front: L C R, Side: L R, LFE
Частота : 48,0 КГц
Частота кадров : 93,750 кадра/сек (512 spf)
Битовая глубина : 24 бит
Метод сжатия : С потерями
Размер потока : 1,12 Гбайт (10%)
Язык : English
Default : Нет
Forced : Нет
Текст #1
Идентификатор : 4
Формат : UTF-8
Идентификатор кодека : S_TEXT/UTF8
Идентификатор кодека/Информация : UTF-8 Plain Text
Продолжительность : 1 ч. 26 м.
Битрейт : 1 бит/сек
Count of elements : 16
Размер потока : 695 байт (0%)
Заголовок : Forced
Язык : Russian
Default : Да
Forced : Нет
Текст #2
Идентификатор : 5
Формат : UTF-8
Идентификатор кодека : S_TEXT/UTF8
Идентификатор кодека/Информация : UTF-8 Plain Text
Продолжительность : 1 ч. 38 м.
Битрейт : 121 бит/сек
Count of elements : 1598
Размер потока : 87,6 Кбайт (0%)
Заголовок : Full
Язык : Russian
Default : Нет
Forced : Нет
Текст #3
Идентификатор : 6
Формат : UTF-8
Идентификатор кодека : S_TEXT/UTF8
Идентификатор кодека/Информация : UTF-8 Plain Text
Продолжительность : 1 ч. 38 м.
Битрейт : 78 бит/сек
Count of elements : 1793
Размер потока : 56,7 Кбайт (0%)
Заголовок : Full
Язык : English
Default : Нет
Forced : Нет
Текст #4
Идентификатор : 7
Формат : UTF-8
Идентификатор кодека : S_TEXT/UTF8
Идентификатор кодека/Информация : UTF-8 Plain Text
Продолжительность : 1 ч. 38 м.
Битрейт : 88 бит/сек
Count of elements : 1912
Размер потока : 63,8 Кбайт (0%)
Заголовок : SDH
Язык : English
Default : Нет
Forced : Нет
Текст #5
Идентификатор : 8
Формат : UTF-8
Идентификатор кодека : S_TEXT/UTF8
Идентификатор кодека/Информация : UTF-8 Plain Text
Продолжительность : 1 ч. 38 м.
Битрейт : 100 бит/сек
Count of elements : 1912
Размер потока : 72,5 Кбайт (0%)
Заголовок : SDH [Colored]
Язык : English
Default : Нет
Forced : Нет
Меню
00:00:00.000 : en:Chapter 1
00:03:59.322 : en:Chapter 2
00:09:38.369 : en:Chapter 3
00:12:58.736 : en:Chapter 4
00:17:34.178 : en:Chapter 5
00:22:29.223 : en:Chapter 6
00:29:55.961 : en:Chapter 7
00:35:37.427 : en:Chapter 8
00:41:49.090 : en:Chapter 9
00:47:09.618 : en:Chapter 10
00:50:40.746 : en:Chapter 11
00:57:25.108 : en:Chapter 12
01:01:17.424 : en:Chapter 13
01:07:21.913 : en:Chapter 14
01:14:02.229 : en:Chapter 15
01:17:41.365 : en:Chapter 16
01:22:38.704 : en:Chapter 17
01:28:54.412 : en:Chapter 18
01:33:50.959 : en:Chapter 19
01:39:26.419 : en:Chapter 20

Скриншоты

[Профиль] [ЛС]
Кто просматривает тему:

Показать сообщения:    

Текущее время: Сегодня 16:20

Часовой пояс: GMT



Вы не можете начинать темы
Вы не можете отвечать на сообщения
Вы не можете редактировать свои сообщения
Вы не можете удалять свои сообщения
Вы не можете голосовать в опросах
Вы не можете прикреплять файлы к сообщениям
Вы не можете скачивать файлы