Да здравствует Цезарь! / Hail, Caesar! (2016) BDRemux 1080p от ExKinoRay | iTunes

 
Автор Сообщение

Russian Mafia ®

Пол:

Стаж: 1 год 8 месяцев

Сообщений: 4255



Награды: 10 (Подробнее)

Top Releaser 5 (Количество: 1) Mega Seeder 5 (Количество: 1) Mega Seeder 2 (Количество: 1)
Торрент-статистика

Создавать темы 27-Май-2016 15:44

[Цитировать]

Информация о фильме
Название: Да здравствует Цезарь!
Оригинальное название: Hail, Caesar!
Год выхода: 2016
Жанр: Комедия, детектив
Режиссер: Итан Коэн, Джоэл Коэн
В ролях: Джош Бролин, Джордж Клуни, Олден Эренрайк, Рэйф Файнс, Скарлетт Йоханссон, Тильда Суинтон, Фрэнсис МакДорманд, Ченнинг Татум, Джона Хилл, Вероника Осорио
О фильме:
Добро пожаловать в Голливуд — империю блеска, роскоши и порока. Здесь обитают кумиры миллионов. Что ни день — пиршество для светских хроникеров. И вот однажды исчезает исполнитель главной роли в фильме «Да здравствует Цезарь!». Ни жена, ни многочисленные любовницы не знают, где он. И теперь продюсера студии ждет веселый денек, ведь он должен найти звезду раньше репортеров…

Страна: Великобритания, США, Япония
Студия: Mike Zoss Productions
Продолжительность: 01:46:06
Перевод: Дублированный | iTunes
Файл
Кодек: MPEG-4
Качество: BDRemux 1080p
Видео: 1920x1080, 34.6 Mbit/s, 23.976 fps
Звук:
Аудио #01: 48 kHz, AC3, 5.1, 384 Kbps | Дублированный, iTunes |
Аудио #02: 48 kHz, DTS-HD MA, 5.1, 3604 kbps | Оригинал |
Релиз от: Автор релиза:

MI

General
Unique ID : 247692448418276732021273523276063316425 (0xBA57D49135DD5BA6968EDB8A1C4219C9)
Complete name : F:VideoHail.Ceaser!.2016.BDREMUX.1080p.ExKinoRay.mkv
Format : Matroska
Format version : Version 4 / Version 2
File size : 28.6 GiB
Duration : 1h 46mn
Overall bit rate mode : Variable
Overall bit rate : 38.6 Mbps
Movie name : Hail.Ceaser!.2016.BDREMUX.1080p.ExKinoRay
Encoded date : UTC 2016-05-27 14:44:20
Writing application : mkvmerge v8.3.0 ('Over the Horizon') 64bit
Writing library : libebml v1.3.1 + libmatroska v1.4.2
Video
ID : 1
Format : AVC
Format/Info : Advanced Video Codec
Format profile : High@L4.1
Format settings, CABAC : Yes
Format settings, ReFrames : 4 frames
Codec ID : V_MPEG4/ISO/AVC
Duration : 1h 46mn
Bit rate mode : Variable
Bit rate : 34.6 Mbps
Maximum bit rate : 36.4 Mbps
Width : 1 920 pixels
Height : 1 080 pixels
Display aspect ratio : 16:9
Frame rate mode : Constant
Frame rate : 23.976 (24000/1001) fps
Color space : YUV
Chroma subsampling : 4:2:0
Bit depth : 8 bits
Scan type : Progressive
Bits/(Pixel*Frame) : 0.695
Stream size : 25.6 GiB (90%)
Title : Hail.Ceaser!.2016.BDREMUX.1080p.ExKinoRay.***селезень***
Language : English
Default : Yes
Forced : No
Audio #1
ID : 2
Format : AC-3
Format/Info : Audio Coding 3
Mode extension : CM (complete main)
Format settings, Endianness : Big
Codec ID : A_AC3
Duration : 1h 46mn
Bit rate mode : Constant
Bit rate : 384 Kbps
Channel(s) : 6 channels
Channel positions : Front: L C R, Side: L R, LFE
Sampling rate : 48.0 KHz
Frame rate : 31.250 fps (1536 spf)
Compression mode : Lossy
Stream size : 291 MiB (1%)
Title : DUB [iTunes]
Language : Russian
Default : Yes
Forced : No
Audio #2
ID : 3
Format : DTS
Format/Info : Digital Theater Systems
Format profile : MA / Core
Mode : 16
Format settings, Endianness : Big
Codec ID : A_DTS
Duration : 1h 46mn
Bit rate mode : Variable / Constant
Bit rate : 3 604 Kbps / 1 509 Kbps
Channel(s) : 6 channels
Channel positions : Front: L C R, Side: L R, LFE
Sampling rate : 48.0 KHz
Frame rate : 93.750 fps (512 spf)
Bit depth : 24 bits
Compression mode : Lossless / Lossy
Stream size : 2.67 GiB (9%)
Title : Original
Language : English
Default : No
Forced : No
Text
ID : 4
Format : UTF-8
Codec ID : S_TEXT/UTF8
Codec ID/Info : UTF-8 Plain Text
Duration : 1h 39mn
Bit rate : 81 bps
Count of elements : 1486
Stream size : 59.6 KiB (0%)
Language : English
Default : No
Forced : No
Menu
00:00:00.000 : en:Chapter 01
00:03:59.322 : en:Chapter 02
00:09:38.369 : en:Chapter 03
00:12:58.736 : en:Chapter 04
00:17:34.178 : en:Chapter 05
00:22:29.223 : en:Chapter 06
00:29:55.961 : en:Chapter 07
00:35:37.427 : en:Chapter 08
00:41:49.090 : en:Chapter 09
00:47:09.618 : en:Chapter 10
00:50:40.746 : en:Chapter 11
00:57:25.108 : en:Chapter 12
01:01:17.424 : en:Chapter 13
01:07:21.913 : en:Chapter 14
01:14:02.229 : en:Chapter 15
01:17:41.365 : en:Chapter 16
01:22:38.704 : en:Chapter 17
01:28:54.412 : en:Chapter 18
01:33:50.959 : en:Chapter 19
01:39:26.419 : en:Chapter 20

Скриншоты

[Профиль] [ЛС]
Кто просматривает тему:

Показать сообщения:    

Текущее время: Сегодня 12:33

Часовой пояс: GMT



Вы не можете начинать темы
Вы не можете отвечать на сообщения
Вы не можете редактировать свои сообщения
Вы не можете удалять свои сообщения
Вы не можете голосовать в опросах
Вы не можете прикреплять файлы к сообщениям
Вы не можете скачивать файлы