Да здравствует Цезарь! / Hail, Caesar! (2016) WEB-DL 1080p | iTunes

 
Автор Сообщение

достали все ®

Пол:

Стаж: 1 год 8 месяцев

Сообщений: 6527



Награды: 12 (Подробнее)

Mega Seeder 3 (Количество: 1) Mega Releaser 3 (Количество: 1) За внесенный вклад в развитие сайта (Количество: 1)
Торрент-статистика

Создавать темы 28-Апр-2016 06:01

[Цитировать]

Информация о фильме
Название: Да здравствует Цезарь!
Оригинальное название: Hail, Caesar!
Год выхода: 2016
Жанр: Комедия, детектив
Режиссер: Итан Коэн, Джоэл Коэн
В ролях: Джош Бролин, Джордж Клуни, Олден Эренрайк, Рэйф Файнс, Скарлетт Йоханссон, Тильда Суинтон, Фрэнсис МакДорманд, Ченнинг Татум, Джона Хилл, Вероника Осорио
О фильме:
Добро пожаловать в Голливуд — империю блеска, роскоши и порока. Здесь обитают кумиры миллионов. Что ни день — пиршество для светских хроникеров. И вот однажды исчезает исполнитель главной роли в фильме «Да здравствует Цезарь!». Ни жена, ни многочисленные любовницы не знают, где он. И теперь продюсера студии ждет веселый денек, ведь он должен найти звезду раньше репортеров…

Страна: Великобритания, США, Япония
Студия: Mike Zoss Productions
Продолжительность: 01:46:06
Перевод: Дублированный | iTunes
Файл
Кодек: MPEG-4
Качество: WEB-DL 1080p
Видео: 1914x1032, 5094 Kbit/s, 23.976 fps
Звук:
Аудио #01: 48 kHz, AC3, 5.1, 384 Kbps | Дублированный, iTunes |
Аудио #02: 48 kHz, AAC, 2.0, 192 kbps | Оригинал |
Автор релиза:

MI

Общее
Уникальный идентификатор : 236180519256072054378221007673530600248 (0xB1AEB6A37461D47F84CC75BE08D54B38)
Полное имя : F:VideoHail.Caesar.2016.WEB-DL.1080p.ExKinoRay.mkv
Формат : Matroska
Версия формата : Version 4 / Version 2
Размер файла : 4,21 Гбайт
Продолжительность : 1 ч. 46 м.
Общий поток : 5676 Кбит/сек
Название фильма : Hail.Caesar.2016.Hail.Caesar.1080p.ExKinoRay
Дата кодирования : UTC 2016-04-27 21:13:41
Программа кодирования : mkvmerge v8.3.0 ('Over the Horizon') 64bit
Библиотека кодирования : libebml v1.3.1 + libmatroska v1.4.2
Видео
Идентификатор : 1
Формат : AVC
Формат/Информация : Advanced Video Codec
Профиль формата : High@L4
Параметр CABAC формата : Да
Параметр ReFrames формата : 4 кадра
Идентификатор кодека : V_MPEG4/ISO/AVC
Продолжительность : 1 ч. 46 м.
Битрейт : 5094 Кбит/сек
Ширина : 1914 пикселей
Высота : 1032 пикселя
Соотношение сторон : 1,85:1
Режим частоты кадров : Постоянный
Частота кадров : 23,976 (23976/1000) кадра/сек
Цветовое пространство : YUV
Субдискретизация насыщенности : 4:2:0
Битовая глубина : 8 бит
Тип развёртки : Прогрессивная
Бит/(Пиксели*Кадры) : 0.108
Размер потока : 3,78 Гбайт (90%)
Язык : English
Default : Да
Forced : Нет
Цветовой диапазон : Limited
Основные цвета : BT.709
Характеристики трансфера : BT.709
Коэффициенты матрицы : BT.709
Аудио #1
Идентификатор : 2
Формат : AC-3
Формат/Информация : Audio Coding 3
Расширение режима : CM (complete main)
Параметр Endianness формата : Big
Идентификатор кодека : A_AC3
Продолжительность : 1 ч. 46 м.
Вид битрейта : Постоянный
Битрейт : 384 Кбит/сек
Каналы : 6 каналов
Расположение каналов : Front: L C R, Side: L R, LFE
Частота : 48,0 КГц
Частота кадров : 31,250 кадров/сек (1536 spf)
Метод сжатия : С потерями
Размер потока : 291 Мбайт (7%)
Заголовок : DUB [iTunes]
Язык : Russian
Default : Да
Forced : Нет
Аудио #2
Идентификатор : 3
Формат : AAC
Формат/Информация : Advanced Audio Codec
Профиль формата : LC
Идентификатор кодека : A_AAC
Продолжительность : 1 ч. 46 м.
Битрейт : 192 Кбит/сек
Каналы : 2 канала
Расположение каналов : Front: L R
Частота : 44,1 КГц
Частота кадров : 43,066 кадра/сек (1024 spf)
Метод сжатия : С потерями
Размер потока : 149 Мбайт (3%)
Язык : English
Default : Нет
Forced : Нет
Меню
00:00:00.000 : en:глава 1
00:04:01.000 : en:глава 2
00:09:40.000 : en:глава 3
00:13:00.000 : en:глава 4
00:17:36.000 : en:глава 5
00:22:31.000 : en:глава 6
00:29:57.000 : en:глава 7
00:35:39.000 : en:глава 8
00:41:51.000 : en:глава 9
00:47:11.000 : en:глава 10
00:50:42.000 : en:глава 11
00:57:27.000 : en:глава 12
01:01:19.000 : en:глава 13
01:07:23.000 : en:глава 14
01:14:04.000 : en:глава 15
01:17:43.000 : en:глава 16
01:22:40.000 : en:глава 17
01:28:56.000 : en:глава 18
01:33:52.000 : en:глава 19
01:39:27.000 : en:глава 20

Скриншоты

[Профиль] [ЛС]
Кто просматривает тему:

Показать сообщения:    

Текущее время: Сегодня 22:07

Часовой пояс: GMT



Вы не можете начинать темы
Вы не можете отвечать на сообщения
Вы не можете редактировать свои сообщения
Вы не можете удалять свои сообщения
Вы не можете голосовать в опросах
Вы не можете прикреплять файлы к сообщениям
Вы не можете скачивать файлы