Дар / The Gift (Сэм Рэйми / Sam Raimi) [2000, США, мистика, детектив, DVB] [Fullscreen] MVO (ТВ3)

 
Автор Сообщение

TorrentFilm ®

Пол:

Стаж: 2 года

Сообщений: 7741



Награды: Нет

Торрент-статистика

Создавать темы 20-Апр-2015 00:03

[Цитировать]

Дар
The Gift
Fullscreen Страна: США
Жанр: мистика, детектив
Год выпуска: 2000
Продолжительность: 01:43:16-Перевод: Профессиональный (многоголосый закадровый) ТВ3
Cубтитры: нет
Оригинальная аудиодорожка: нет-Режиссер: Сэм Рэйми / Sam Raimi
В ролях: Кейт Бланшетт, Джованни Рибизи, Грег Киннер, Хилари Суонк, Киану Ривз, Кэти Холмс, Челси Росс, Дж.К. Симмонс, Ким Диккенс, Гэри Коул, Майкл Джитер-Описание: Вдова Энни Уилсон наделена даром ясновидения. И когда происходит таинственное убийство девушки из богатой семьи, ее талант приходится как нельзя кстати в установлении личности убийцы. Но все не так просто, как кажется. Дар не дает однозначных ответов. Тем временем круг подозреваемых расширяется с каждым днем, вовлекая в эпицентр событий все новых персонажей, каждый из которых может быть убийцей-Доп. информация:
Перевод на трекере появляется впервые
Fullscreen
DVB имеет иное наполнение кадра, чем BD
(соотношение сторон 4:3)
Финальные титры ускорены и совмещены с анонсом фильма (смотрим 12 скрин)
-Сэмпл: минута59сек-Качество видео: DVB
Формат видео: MPEG-PS
Видео: MPEG Video, 704x576, 4:3, 25,000 кадров/сек, 3112 Кбит/сек
Аудио: MP2, 48,0 КГц, 192 Кбит/сек, 2 канала (многоголосый ТВ3)

Сравнение

BDRip

MediaInfo

Общее
Полное имя : D:\с диска Е\инет\Раздачи\Дар.2000.FullScreen\Дар-2015.03.20.mpg
Формат : MPEG-PS
Размер файла : 2,41 Гбайт
Продолжительность : 1 ч. 43 м.
Общий поток : 3347 Кбит/сек
Видео
Идентификатор : 224 (0xE0)
Формат : MPEG Video
Версия формата : Version 2
Профиль формата : Main@Main
Параметр BVOP формата : Да
Параметр матрицы формата : Выборочная
Параметр GOP формата : Variable
Структура изображения : Frame
Продолжительность : 1 ч. 43 м.
Битрейт : 3112 Кбит/сек
Ширина : 704 пикселя
Высота : 576 пикселей
Соотношение сторон : 4:3
Частота кадров : 25,000 кадров/сек
Стандарт вещания : PAL
Цветовое пространство : YUV
Субдискретизация насыщенности : 4:2:0
Битовая глубина : 8 бит
Тип развёртки : Чересстрочная
Порядок развёртки : Верхнее поле первое
Метод сжатия : С потерями
Бит/(Пиксели*Кадры) : 0.307
Временной код первого кадра : 00:00:00:00
Оригинал временного кода : Group of pictures header
GOP, открыто/закрыто : Открыто
GOP, открыто/закрыто на первом кадре : Закрыто
Размер потока : 2,23 Гбайт (92%)
Аудио
Идентификатор : 192 (0xC0)
Формат : MPEG Audio
Версия формата : Version 1
Профиль формата : Layer 2
Продолжительность : 1 ч. 43 м.
Вид битрейта : Постоянный
Битрейт : 192 Кбит/сек
Каналы : 2 канала
Частота : 48,0 КГц
Метод сжатия : С потерями
Задержка видео : 8 мс.
Размер потока : 142 Мбайт (6%)

Скриншот c названием фильма

[Профиль] [ЛС]

Создавать темы 06-Авг-2015 22:37 (спустя 3 месяца 16 дней)

Топик был перенесен из форума Фильмы до 2014 года в форум Фильмы до 2012 года
sergej644
 
Кто просматривает тему:

Показать сообщения:    

Текущее время: Сегодня 12:32

Часовой пояс: GMT



Вы не можете начинать темы
Вы не можете отвечать на сообщения
Вы не можете редактировать свои сообщения
Вы не можете удалять свои сообщения
Вы не можете голосовать в опросах
Вы не можете прикреплять файлы к сообщениям
Вы не можете скачивать файлы