Д`Артаньян и три мушкетера (1979) DVDRip

 
Автор Сообщение

sergej644 ®

Пол:

Стаж: 4 года 11 месяцев

Сообщений: 6038

Откуда: Soviet Union



Награды: Нет

Торрент-статистика

Создавать темы 09-Мар-2015 18:18

[Цитировать]

--Д`Артаньян и три мушкетера
Информация о фильме
Название: Д`Артаньян и три мушкетера
Год выхода: 1979
Жанр: Приклюения, Музыкальный
Продолжительность: 04:08:36
Режиссер: Георгий Юнгвальд-Хилькевич
Сценарий: Марк Розовский
Композитор: Максим Дунаевский
В ролях: Михаил Боярский, Игорь Старыгин, Вениамин Смехов, Валентин Смирнитский, Лев Дуров, Олег Табаков, Алиса Фрейндлих, Маргарита Терехова, Елена Цыплакова, Ирина Алферова, Юрий Шерстнев, Александр Трофимов, Борис Клюев, Юрий Дубровин, Леонид Каневский, Инга Третьякова, Владимир Балон, Алексей Кузнецов, Анатолий Ходюшин, Иосиф Кринский, Ольга Матешко, Мария Ярыгина, Евгений Данчевский, Владимир Долинский, Виктор Павловский, Валентина Клименко, Геннадий Макоев, Елена Мелентьева, Валентин Букин, Георгий Юнгвальд-Хилькевич
О фильме: Четверо друзей-мушкетеров спасают честь королевы Франции, вступают в единоборство со всесильным кардиналом Ришелье и коварной Миледи, а главное - наслаждаются жизнью...
Доп.информация: Данный рип 3-х-скрийного фильма сделан одним файлом. Исходник - второе TWISTER-овское издание DVD9+DVD5 (коллекционное издание). Фильм выпускался на DVD целых 5 раз

Страна: СССР
Студия: Одесская киностудия
Перевод: Не требуется (оригинальный)
Файл
Формат: avi
Качество: DVDRip (DVD9+DVD5)
Видео: XviD, 640x480, 25fps, 750kbps
Аудио: MPEG Layer 3, 2ch, 48000Hz, 128kbps

MediaInfo

General
Complete name : Dartanyan.I.Tri.Mushketera.1979.O.DVDRip.1400.MediaClub.CurHaJI.avi
Format : AVI
Format/Info : Audio Video Interleave
File size : 1.46 GiB
Duration : 4h 8mn
Overall bit rate : 841 Kbps
Movie name : Dartanyan.I.Tri.Mushketera.1979.O.DVDRip.1400.MediaClub.CurHaJI
Writing application : Lavf53.13.0
Writing library : VirtualDub build 35491/release
Video
ID : 0
Format : MPEG-4 Visual
Format profile : Advanced Simple@L5
Format settings, BVOP : 1
Format settings, QPel : No
Format settings, GMC : No warppoints
Format settings, Matrix : Custom
Codec ID : XVID
Codec ID/Hint : XviD
Duration : 4h 8mn
Bit rate : 705 Kbps
Width : 640 pixels
Height : 480 pixels
Display aspect ratio : 4:3
Frame rate : 25.000 fps
Color space : YUV
Chroma subsampling : 4:2:0
Bit depth : 8 bits
Scan type : Progressive
Compression mode : Lossy
Bits/(Pixel*Frame) : 0.092
Stream size : 1.22 GiB (84%)
Writing library : XviD 1.2.1 (UTC 2008-12-04)
Audio
ID : 1
Format : MPEG Audio
Format version : Version 1
Format profile : Layer 3
Codec ID : 55
Codec ID/Hint : MP3
Duration : 4h 8mn
Bit rate mode : Constant
Bit rate : 128 Kbps
Channel(s) : 2 channels
Sampling rate : 48.0 KHz
Compression mode : Lossy
Stream size : 228 MiB (15%)
Alignment : Split accross interleaves
Interleave, duration : 40 ms (1.00 video frame)
Interleave, preload duration : 500 ms
Writing library : L3.99r
Encoding settings : -m s -V 4 -q 2 -lowpass 17 -b 128

Скриншоты

--
[Профиль] [ЛС]

Создавать темы 06-Авг-2015 22:00 (спустя 4 месяца 28 дней)

Топик был перенесен из форума Кино СССР в форум Кино СССР
sergej644
 
Кто просматривает тему:

Показать сообщения:    

Текущее время: Сегодня 08:26

Часовой пояс: GMT



Вы не можете начинать темы
Вы не можете отвечать на сообщения
Вы не можете редактировать свои сообщения
Вы не можете удалять свои сообщения
Вы не можете голосовать в опросах
Вы не можете прикреплять файлы к сообщениям
Вы не можете скачивать файлы