Д`Артаньян и три мушкетера (1979) DVD9+DVD5 | Коллекционное издание

 
Автор Сообщение

sergej644 ®

Пол:

Стаж: 4 года 11 месяцев

Сообщений: 6040

Откуда: Soviet Union



Награды: Нет

Торрент-статистика

Создавать темы 10-Янв-2015 03:28

[Цитировать]

--Д`Артаньян и три мушкетера (1979)
Информация о фильме
Название: Д`Артаньян и три мушкетера
Год выхода: 1979
Жанр: мюзикл, приключения, история
Режиссер: Георгий Юнгвальд-Хилькевич
В ролях: Михаил Боярский, Вениамин Смехов, Игорь Старыгин, Валентин Смирнитский, Ирина Алфёрова, Алиса Фрейндлих, Маргарита Терехова, Олег Табаков, Лев Дуров, Александр Трофимов
О фильме:
Четверо друзей-мушкетеров спасают честь королевы Франции, вступают в единоборство со всесильным кардиналом Ришелье и коварной Миледи, а главное — наслаждаются жизнью.

Страна: СССР
Студия: Гостелерадио, Одесская киностудия
Продолжительность: 250 мин. / 04:10
Перевод: не требуется
Файл
Кодек: MPEG2
Качество: DVD9+DVD5
Видео: PAL 4:3 (720x576@768x576) VBR 5502 Kbps, 25.000 fps
Звук: Dolby AC3, 6 ch, 48.0 KHz, 384 Kbps
Субтитры: русские, английские

MediaInfo

General
Complete name : D:Dartanyan.I.Tri.Mushketera.(1-3.serii.iz.3).1978.DVD-9.DVD-5Disk.1VTS_01_2.VOB
Format : MPEG-PS
File size : 1 024 MiB
Duration : 23mn 50s
Overall bit rate mode : Variable
Overall bit rate : 6 005 Kbps
Video
ID : 224 (0xE0)
Format : MPEG Video
Format version : Version 2
Format profile : Main@Main
Format settings, BVOP : Yes
Format settings, Matrix : Custom
Format settings, GOP : M=3, N=15
Format settings, picture struc : Frame
Duration : 23mn 50s
Bit rate mode : Variable
Bit rate : 5 502 Kbps
Maximum bit rate : 9 000 Kbps
Width : 720 pixels
Height : 576 pixels
Display aspect ratio : 4:3
Frame rate : 25.000 fps
Standard : PAL
Color space : YUV
Chroma subsampling : 4:2:0
Bit depth : 8 bits
Scan type : Interlaced
Scan order : Top Field First
Compression mode : Lossy
Bits/(Pixel*Frame) : 0.531
Time code of first frame : 00:24:22:11
Time code source : Group of pictures header
Stream size : 938 MiB (92%)
Audio
ID : 189 (0xBD)-128 (0x80)
Format : AC-3
Format/Info : Audio Coding 3
Mode extension : CM (complete main)
Format settings, Endianness : Big
Muxing mode : DVD-Video
Duration : 23mn 50s
Bit rate mode : Constant
Bit rate : 384 Kbps
Channel(s) : 6 channels
Channel positions : Front: L C R, Side: L R, LFE
Sampling rate : 48.0 KHz
Bit depth : 16 bits
Compression mode : Lossy
Delay relative to video : -280ms
Stream size : 65.5 MiB (6%)
Text #1
ID : 189 (0xBD)-32 (0x20)
Format : RLE
Format/Info : Run-length encoding
Muxing mode : DVD-Video
Text #2
ID : 189 (0xBD)-33 (0x21)
Format : RLE
Format/Info : Run-length encoding
Muxing mode : DVD-Video
Menu

Скриншоты

[Профиль] [ЛС]

Создавать темы 06-Авг-2015 22:01 (спустя 6 месяцев 27 дней)

Топик был перенесен из форума Кино СССР в форум Фильмы (DVD 5/9)
sergej644
 
Кто просматривает тему:

Показать сообщения:    

Текущее время: Сегодня 22:41

Часовой пояс: GMT



Вы не можете начинать темы
Вы не можете отвечать на сообщения
Вы не можете редактировать свои сообщения
Вы не можете удалять свои сообщения
Вы не можете голосовать в опросах
Вы не можете прикреплять файлы к сообщениям
Вы не можете скачивать файлы