Дангал / Борьба / Dangal (2016) BDRemux | L

 
Автор Сообщение

BOSS ®

Пол:

Стаж: 2 года 11 месяцев

Сообщений: 7139

Откуда: ODESSA



Награды: 20 (Подробнее)

Mega Seeder 3 (Количество: 1) Mega Releaser 2 (Количество: 1) За внесенный вклад в развитие сайта (Количество: 1)
Торрент-статистика

Создавать темы 14-Сен-2017 15:33

[Цитировать]

Информация о фильме
Название: Дангал
Оригинальное название: Dangal
Год выхода: 2016
Жанр: драма, биография, спорт
Режиссер: Нитеш Тивари
В ролях: Аамир Кхан, Сакши Танвар, Фатима Сана Шаикх, Санья Малхотра, Апаршакти Хурана, Заира Васим, Сухани Бхатнагар, Ритвик Сахоре, Гириш Кулкарни, Анураг Арора, Махеш Балрадж, Виван Бхатена, Анмол Чаран, Бадрул Ислам
О фильме:
История реально существующего спортсмена Махавира Сингха Пхогата, который по причине бедности был вынужден бросить спортивную борьбу, но поклялся воспитать сына, который станет в будущем олимпийским чемпионом. Но вот досада — у них с женой родились четыре дочки. Отец сначала отчаялся, но потом, увидев, что подросшие девчонки поколачивают одноклассников, решил всё же сделать из них спортсменок. Тренер из отца получился отменный.

Страна: Индия
Продолжительность: 02:41:01
Перевод: Любительский многоголосый
Файл
Кодек: H.264
Качество: BDRemux
Видео: 1920x1080, ~32 Мбит/с, 24 кадр/с
Аудио 1: DTS, 5.1 ch, 1509 кбит/с - Хинди
Аудио 2: AC3, 5.1 ch, 640 кбит/с - Хинди
Аудио 3: AC3, 5.1 ch, 256 кбит/с - Русский (Honey&Haseena)
Аудио 4: AC3, 2.0 ch, 640 кбит/с - Телунгу
Аудио 5: AC3, 2.0 ch, 192 кбит/с - Хинди
Аудио 6: AC3, 5.1 ch, 384 кбит/с - Английский
Субтитры: Английские

Скриншоты

MI

Формат : BDAV
Формат/Информация : Blu-ray Video
Размер файла : 31,5 Гбайт
Продолжительность : 2 ч. 41 м.
Режим общего битрейта : Переменный
Общий поток : 28,0 Мбит/сек
Максимальный общий битрейт : 48,0 Мбит/сек
Видео
Идентификатор : 4113 (0x1011)
Идентификатор меню : 1 (0x1)
Формат : AVC
Формат/Информация : Advanced Video Codec
Профиль формата : High@L4.1
Настройки формата : CABAC / 4 Ref Frames
Параметр CABAC формата : Да
Параметр RefFrames формата : 4 кадра
Идентификатор кодека : 27
Продолжительность : 2 ч. 41 м.
Вид битрейта : Переменный
Максимальный битрейт : 32,0 Мбит/сек
Ширина : 1920 пикселей
Высота : 1080 пикселей
Соотношение сторон : 16:9
Частота кадров : 24,000 кадра/сек
Цветовое пространство : YUV
Субдискретизация насыщенности : 4:2:0
Битовая глубина : 8 бит
Тип развёртки : Прогрессивная
Аудио #1
Идентификатор : 4352 (0x1100)
Идентификатор меню : 1 (0x1)
Формат : DTS
Формат/Информация : Digital Theater Systems
Профиль формата : MA / Core
Режим : 16
Параметр Endianness формата : Big
Режим смешивания : Stream extension
Идентификатор кодека : 134
Продолжительность : 2 ч. 41 м.
Вид битрейта : Переменный / Постоянный
Битрейт : Неизвестно / 1509 Кбит/сек
Каналы : 6 каналов
Расположение каналов : Front: L C R, Side: L R, LFE
Частота : 48,0 КГц
Частота кадров : 93,750 кадра/сек (512 SPF)
Битовая глубина : 24 бит
Метод сжатия : Без потерь / Lossy
Аудио #2
Идентификатор : 4353 (0x1101)
Идентификатор меню : 1 (0x1)
Формат : AC-3
Формат/Информация : Audio Coding 3
Параметр Endianness формата : Big
Идентификатор кодека : 129
Продолжительность : 2 ч. 41 м.
Вид битрейта : Постоянный
Битрейт : 640 Кбит/сек
Каналы : 6 каналов
Расположение каналов : Front: L C R, Side: L R, LFE
Частота : 48,0 КГц
Частота кадров : 31,250 кадров/сек (1536 SPF)
Битовая глубина : 16 бит
Метод сжатия : С потерями
Размер потока : 737 Мбайт (2%)
Аудио #3
Идентификатор : 4354 (0x1102)
Идентификатор меню : 1 (0x1)
Формат : AC-3
Формат/Информация : Audio Coding 3
Параметр Endianness формата : Big
Идентификатор кодека : 129
Продолжительность : 2 ч. 41 м.
Вид битрейта : Постоянный
Битрейт : 256 Кбит/сек
Каналы : 2 канала
Расположение каналов : Front: L R
Частота : 48,0 КГц
Частота кадров : 31,250 кадров/сек (1536 SPF)
Битовая глубина : 16 бит
Метод сжатия : С потерями
Размер потока : 295 Мбайт (1%)
Аудио #4
Идентификатор : 4355 (0x1103)
Идентификатор меню : 1 (0x1)
Формат : AC-3
Формат/Информация : Audio Coding 3
Параметр Endianness формата : Big
Идентификатор кодека : 129
Продолжительность : 2 ч. 41 м.
Вид битрейта : Постоянный
Битрейт : 640 Кбит/сек
Каналы : 6 каналов
Расположение каналов : Front: L C R, Side: L R, LFE
Частота : 48,0 КГц
Частота кадров : 31,250 кадров/сек (1536 SPF)
Битовая глубина : 16 бит
Метод сжатия : С потерями
Размер потока : 737 Мбайт (2%)
Аудио #5
Идентификатор : 4356 (0x1104)
Идентификатор меню : 1 (0x1)
Формат : AC-3
Формат/Информация : Audio Coding 3
Параметр Endianness формата : Big
Идентификатор кодека : 129
Продолжительность : 2 ч. 41 м.
Вид битрейта : Постоянный
Битрейт : 192 Кбит/сек
Каналы : 2 канала
Расположение каналов : Front: L R
Частота : 48,0 КГц
Частота кадров : 31,250 кадров/сек (1536 SPF)
Битовая глубина : 16 бит
Метод сжатия : С потерями
Размер потока : 221 Мбайт (1%)
Аудио #6
Идентификатор : 4357 (0x1105)
Идентификатор меню : 1 (0x1)
Формат : AC-3
Формат/Информация : Audio Coding 3
Параметр Endianness формата : Big
Идентификатор кодека : 129
Продолжительность : 2 ч. 41 м.
Вид битрейта : Постоянный
Битрейт : 384 Кбит/сек
Каналы : 6 каналов
Расположение каналов : Front: L C R, Side: L R, LFE
Частота : 48,0 КГц
Частота кадров : 31,250 кадров/сек (1536 SPF)
Битовая глубина : 16 бит
Метод сжатия : С потерями
Размер потока : 442 Мбайт (1%)
Текст
Идентификатор : 4608 (0x1200)
Идентификатор меню : 1 (0x1)
Формат : PGS
Идентификатор кодека : 144
[Профиль] [ЛС]
Кто просматривает тему:

Форум Тема Автор Размер
Фильмы (HD Rips | 720p, 1080p) Дангал / Борьба / Dangal (2016) BDRip 720p | P BOSS 7.79 GB
Показать сообщения:    

Текущее время: Сегодня 17:43

Часовой пояс: GMT



Вы не можете начинать темы
Вы не можете отвечать на сообщения
Вы не можете редактировать свои сообщения
Вы не можете удалять свои сообщения
Вы не можете голосовать в опросах
Вы не можете прикреплять файлы к сообщениям
Вы не можете скачивать файлы