Дама в очках и с ружьем в автомобиле / La dame dans l\'auto avec des lunettes et un fusil / The Lady in the Car with Glasses and a Gun (Жоанн Сфар / Joann Sfar) [2015, Франция, Бельгия, триллер, WEB-DLRip] Dub

 
Автор Сообщение

TorrentFilm ®

Пол:

Стаж: 2 года

Сообщений: 7741



Награды: Нет

Торрент-статистика

Создавать темы 25-Ноя-2015 00:08

[Цитировать]

Дама в очках и с ружьем в автомобиле / La dame dans l'auto avec des lunettes et un fusi / The Lady in the Car with Glasses and a Gun
Страна: Франция, Бельгия
Жанр: триллер
Год выпуска: 2015
Продолжительность: 01:33:50-Перевод: Профессиональный (дублированный)
Cубтитры: нет
Оригинальная аудиодорожка: нет-Режиссер: Жоанн Сфар / Joann Sfar-В ролях: Фрейя Мавор, Бенжамин Биолэй, Элио Джермано, Стэйси Мартин, Тьерри Анкиссе, Сандрин Ларош, Фредерик Этерлинк, Ален Белло, Эдуар Жиар, Франсуа-Доминик Блен
...-Описание: Она самая прекрасная, самая чувственная, самая импульсивная, самая упрямая, самая незадачливая девушка. Она хотела воплотить мечту и увидеть море, а в результате попала в невероятную переделку. В чужом автомобиле и с трупом в багажнике, скрываясь от полиции и рискуя собственной жизнью, ей осталось только одно — убедить себя в том, что она еще не окончательно сошла с ума, и что она — это она, а не кто-то другой…-Сэмпл: http://sendfile.su/1175321

Качество видео: WEB-DLRip
Формат видео: AVI
Видео: 720x304 (2.37:1), 24 fps, XviD build 50 ~1799 kbps avg, 0.34 bit/pixel
Аудио: 48 kHz, AC3 Dolby Digital, 3/2 (L,C,R,l,r) + LFE ch, ~384 kbps

MediaInfo

Формат : AVI
Формат/Информация : Audio Video Interleave
Размер файла : 1,44 Гбайт
Продолжительность : 1 ч. 33 м.
Общий поток : 2193 Кбит/сек
Программа кодирования : VirtualDubMod 1.5.10.2 (build 2540/release)
Библиотека кодирования : VirtualDub build 35491/release
Видео
Идентификатор : 0
Формат : MPEG-4 Visual
Профиль формата : Advanced Simple@L5
Параметр BVOP формата : 2
Параметр QPel формата : Нет
Параметр GMC формата : Без точки перехода
Параметр матрицы формата : Default (MPEG)
Идентификатор кодека : XVID
Идентификатор кодека/Подсказка : XviD
Продолжительность : 1 ч. 33 м.
Битрейт : 1799 Кбит/сек
Ширина : 720 пикселей
Высота : 304 пикселя
Соотношение сторон : 2,35:1
Частота кадров : 24,000 кадра/сек
Цветовое пространство : YUV
Субдискретизация насыщенности : 4:2:0
Битовая глубина : 8 бит
Тип развёртки : Прогрессивная
Метод сжатия : С потерями
Бит/(Пиксели*Кадры) : 0.342
Размер потока : 1,18 Гбайт (82%)
Библиотека кодирования : XviD 1.2.1 (UTC 2008-12-04)
Аудио
Идентификатор : 1
Формат : AC-3
Формат/Информация : Audio Coding 3
Расширение режима : CM (complete main)
Параметр Endianness формата : Big
Идентификатор кодека : 2000
Продолжительность : 1 ч. 33 м.
Вид битрейта : Постоянный
Битрейт : 384 Кбит/сек
Каналы : 6 каналов
Расположение каналов : Front: L C R, Side: L R, LFE
Частота : 48,0 КГц
Метод сжатия : С потерями
Размер потока : 258 Мбайт (18%)
Выравнивание : Разделение по промежуткам
Продолжительность промежутка : 42 мс. (1,00 видеокадр)
Время предзагрузки промежутка : 500 мс.

Скриншот c названием фильма

Скриншоты





[Профиль] [ЛС]
Кто просматривает тему:

Показать сообщения:    

Текущее время: Сегодня 20:21

Часовой пояс: GMT



Вы не можете начинать темы
Вы не можете отвечать на сообщения
Вы не можете редактировать свои сообщения
Вы не можете удалять свои сообщения
Вы не можете голосовать в опросах
Вы не можете прикреплять файлы к сообщениям
Вы не можете скачивать файлы