Дама в автомобиле (Изольда Солодова) [1989, Рисованный мультфильм, VHSRip]

 
Автор Сообщение

painkiller ®

Стаж: 2 года 3 месяца

Сообщений: 582



Награды: Нет

Торрент-статистика

Создавать темы 27-Авг-2014 15:29

[Цитировать]

Дама в автомобиле
Страна: СССР
Жанр: Рисованный мультфильм
Продолжительность: 00:04:44
Год выпуска: 1989
Русские субтитры: нет
Режиссёр: Изольда Солодова
Описание: Мультфильм для взрослых, снят по заказу Министерства здравоохранения СССР, о том к чему могут привести неразборчивость в партнерах и случайные половые связи.
Доп. информация: «Свердловская киностудия»
Композитор: А.Арутюнов
Оператор:С.Константинов
Консультант: Кандидат медицинских наук М.Васильев
Исходник для рипа предоставлен alenavova
Чистка звука Xfiles
Качество: VHSRip
Формат: AVI
Видео: 640x480 (1.33:1), 25 fps, XviD build 65 ~2090 kbps avg, 0.27 bit/pixel
Аудио: 48 kHz, AC3 Dolby Digital, 1/0 (C) ch, ~192.00 kbps avg
Субтитры: нет

Подробные технические данные

Формат : AVI
Формат/Информация : Audio Video Interleave
Размер файла : 77,8 Мбайт
Продолжительность : 4 м. 44 с.
Общий поток : 2292 Кбит/сек
Программа кодирования : VirtualDub
ModRus 1.5.10.2 (build 2542/release)
Правообладатель : .org
Примечание : VHSRip by dvdss
Видео
Идентификатор : 0
Формат : MPEG-4 Visual
Профиль формата : Advanced Simple@L5
Параметр BVOP формата : 2
Параметр QPel формата : Нет
Параметр GMC формата : Без точки перехода
Параметр матрицы формата : Выборочная
Идентификатор кодека : XVID
Идентификатор кодека/Подсказка : XviD
Продолжительность : 4 м. 44 с.
Битрейт : 2090 Кбит/сек
Ширина : 640 пикс.
Высота : 480 пикс.
Соотношение сторон : 4:3
Частота кадров : 25,000 кадр/сек
Цветовое пространство : YUV
Подвыборка цветности : 4:2:0
Битовая глубина : 8 бит
Тип развёртки : Прогрессивная
Метод сжатия : С потерями
Бит/(Пиксели*Кадры) : 0.272
Размер потока : 71,0 Мбайт (91%)
Библиотека кодирования : XviD 65
Аудио
Идентификатор : 1
Формат : AC-3
Формат/Информация : Audio Coding 3
Расширение режима : CM (complete main)
Идентификатор кодека : 2000
Продолжительность : 4 м. 44 с.
Вид битрейта : Постоянный
Битрейт : 192 Кбит/сек
Канал(ы) : 1 канал
Расположение каналов : Front: C
Частота : 48,0 КГц
Битовая глубина : 16 бит
Метод сжатия : С потерями
Размер потока : 6,52 Мбайт (8%)
Выравнивание : Разделение по промежуткам
Продолжительность промежутка : 40 мс. (1,00 видеокадр)Время предзагрузки промежутка : 500 ms

Скриншоты

[Профиль] [ЛС]
Кто просматривает тему:

Показать сообщения:    

Текущее время: Сегодня 14:36

Часовой пояс: GMT



Вы не можете начинать темы
Вы не можете отвечать на сообщения
Вы не можете редактировать свои сообщения
Вы не можете удалять свои сообщения
Вы не можете голосовать в опросах
Вы не можете прикреплять файлы к сообщениям
Вы не можете скачивать файлы