Дальняя дорога / The Longest Ride (Джордж Тиллман мл. / George Tillman Jr.) [2015, США, драма, мелодрама, BDRip] Dub

 
Автор Сообщение

TorrentFilm ®

Пол:

Стаж: 2 года

Сообщений: 7741



Награды: Нет

Торрент-статистика

Создавать темы 09-Авг-2015 00:06

[Цитировать]

Дальняя дорога / The Longest Ride- Год выпуска: 2015
Страна: США
Жанр: драма, мелодрама
Продолжительность: 02:08:18
Перевод: Профессиональный (полное дублирование) BD EUR
Субтитры: нет-Режиссер: Джордж Тиллман мл. / George Tillman Jr.
В ролях: Скотт Иствуд, Бритт Робертсон, Алан Алда, Джек Хьюстон, Уна Чаплин, Мелисса Бенойст, Лолита Давидович, Элеа Оберон, Кейт Форбс, Тьяго Риани
О фильме: Люк — экс-чемпион по родео, раздумывающий над возвращением в спорт. София — выпускница колледжа, получившая заманчивое предложение о работе в сфере искусства в Нью-Йорке. В то время как молодые люди пытаются сделать нелегкий выбор между чувствами и мечтами, жизнь сталкивает их со стариком Айрой. Воспоминания нового друга о его полувековых отношениях с женой вдохновляют Софию и Люка на главные решения в их жизни. Два поколения, две истории, вечная любовь.-Релиз:
Автор: yaroslaigor
Качество: BDRip (источник: / BD-Remux / 1080p)
Формат: AVI
Видео: 720x304 (2.37:1), 23.976 fps, XviD build 65 ~1980 kbps avg, 0.38 bit/pixel
Аудио: 48 kHz, AC3 Dolby Digital, 3/2 (L,C,R,l,r) + LFE ch, ~448.00 kbps avg
Размер: 2234.63 Mb (1/2 DVD-R)
Скачать: Семпл-

Кадры из фильма


-

Mi

Формат : AVI
Формат/Информация : Audio Video Interleave
Профиль формата : OpenDML
Размер файла : 2,18 Гбайт
Продолжительность : 2 ч. 8 м.
Общий поток : 2435 Кбит/сек
Название фильма : Дальняя дорога / The Longest Ride (2015) BDRip
Режиссёр : yaroslaigor
Жанр : драма, мелодрама
Программа кодирования : VirtualDubMod 1.5.10.2 (build 2542/release)
Примечание : 04.08.2015
Видео
Идентификатор : 0
Формат : MPEG-4 Visual
Профиль формата : Advanced Simple@L5
Параметр BVOP формата : 1
Параметр QPel формата : Нет
Параметр GMC формата : Без точки перехода
Параметр матрицы формата : Выборочная
Идентификатор кодека : XVID
Идентификатор кодека/Подсказка : XviD
Продолжительность : 2 ч. 8 м.
Битрейт : 1975 Кбит/сек
Ширина : 720 пикселей
Высота : 304 пикселя
Соотношение сторон : 2,35:1
Частота кадров : 23,976 кадра/сек
Цветовое пространство : YUV
Субдискретизация насыщенности : 4:2:0
Битовая глубина : 8 бит
Тип развёртки : Прогрессивная
Метод сжатия : С потерями
Бит/(Пиксели*Кадры) : 0.376
Размер потока : 1,77 Гбайт (81%)
Библиотека кодирования : XviD 65
Аудио
Идентификатор : 1
Формат : AC-3
Формат/Информация : Audio Coding 3
Расширение режима : CM (complete main)
Параметр Endianness формата : Big
Идентификатор кодека : 2000
Продолжительность : 2 ч. 8 м.
Вид битрейта : Постоянный
Битрейт : 448 Кбит/сек
Каналы : 6 каналов
Расположение каналов : Front: L C R, Side: L R, LFE
Частота : 48,0 КГц
Битовая глубина : 16 бит
Метод сжатия : С потерями
Размер потока : 411 Мбайт (18%)
Выравнивание : Разделение по промежуткам
Продолжительность промежутка : 42 мс. (1,00 видеокадр)
Время предзагрузки промежутка : 500 мс.
-
[Профиль] [ЛС]
Кто просматривает тему:

Форум Тема Автор Размер
50/50 (Pop, Dance) VA - Заводной музон в дальнюю дорогу (50/50) - 2015, MP3, 256 kbps Magnat 713 MB
Отечественные мультфильмы Алеша Попович и Тугарин Змей / Добрыня Никитич и Змей Горыныч / Илья Муромец и Соловей Разбойник / Три богатыря и Шамаханская царица / Иван Царевич и Серый Волк / Три богатыря на дальних берегах... reversefile 4.37 GB
Документальные HD Дальневосточный леопард. Борьба за таёжный престол (Наталья Кузнецова) [2014, Документальный, HDTVRip 720p] TorrentFilm 1.4 GB
Документальные HD Дальневосточный леопард. Борьба за таёжный престол (Россия HD) (Наталия Кузнецова) [2014, документальный, HDTV 1080p] TorrentFilm 3.07 GB
Другие симуляторы Дальнобойщики 3: Большие гонки (2010) PC | Лицензия Russian Mafia 2.56 GB
Фильмы (HD Rips | 720p, 1080p) Дальняя дорога / The Longest Ride (2015) BDRip 720p | iTunes достали все 7.13 GB
Фильмы 2015 года Дальняя дорога / The Longest Ride (2015) BDRip-AVC | D | iTunes достали все 2.85 GB
Фильмы 2015 года Дальняя дорога / The Longest Ride (2015) HDRip | iTunes достали все 2.18 GB
Показать сообщения:    

Текущее время: Сегодня 08:34

Часовой пояс: GMT



Вы не можете начинать темы
Вы не можете отвечать на сообщения
Вы не можете редактировать свои сообщения
Вы не можете удалять свои сообщения
Вы не можете голосовать в опросах
Вы не можете прикреплять файлы к сообщениям
Вы не можете скачивать файлы