Дальняя дорога / The Longest Ride (Джордж Тиллман мл. / George Tillman Jr.) [2015, США, Драма, мелодрама, BDRip] Dub

 
Автор Сообщение

TorrentFilm ®

Пол:

Стаж: 2 года

Сообщений: 7741



Награды: Нет

Торрент-статистика

Создавать темы 14-Июл-2015 00:10

[Цитировать]

Дальняя дорога / The Longest Ride- Год выпуска: 2015
Выпущено: США / Fox 2000 Pictures
Жанр: драма, мелодрама
Продолжительность: 02:08:20
Перевод: Профессиональный (полное дублирование)
Cубтитры: нет-Режиссер:
Джордж Тиллман мл. / George Tillman Jr.-В ролях:
Скотт Иствуд (Luke Collins), Бритт Робертсон (Sophia Danko), Алан Алда (Ira Levinson), Джек Хьюстон (Young Ira), Уна Чаплин (Young Ruth), Мелисса Бенойст (Marcia), Лолита Давидович (Kate Collins), Элеа Оберон (Mrs. Pfeffer), Кейт Форбс (Ira's Mother), Тьяго Риани (Luiz), Дэнни Винсон (Larry Till)-Описание:
Люк — экс-чемпион по родео, раздумывающий над возвращением в спорт. София — выпускница колледжа, получившая заманчивое предложение о работе в сфере искусства в Нью-Йорке. В то время как молодые люди пытаются сделать нелегкий выбор между чувствами и мечтами, жизнь сталкивает их со стариком Айрой. Воспоминания нового друга о его полувековых отношениях с женой вдохновляют Софию и Люка на главные решения в их жизни. Два поколения, две истории, вечная любовь.-Релиз групп | | IMDB | КиноПоиск | Сэмпл |-Качество: BDRip [BDRemux | 1080p | HDCLUB]
Формат: AVI
Видео: 720x304 (2.37:1), 23.976 fps, XviD build 73 ~1234 kbps avg, 0.24 bit/pixel
Аудио: 48 kHz, AC3 Dolby Digital, 3/2 (L,C,R,l,r) + LFE ch, ~384.00 kbps avg - iTunes Russia
-

Скриншоты

MediaInfo

General
Complete name                            : D:\Dalnyaya_doroga_2015_BDRip_iTunes_by_Dalemake.avi
Format                                   : AVI
Format/Info                              : Audio Video Interleave
File size                                : 1.46 GiB
Duration                                 : 2h 8mn
Overall bit rate                         : 1 628 Kbps
Writing application                      : VirtualDubMod 1.5.10.3 | www.virtualdub-fr.org || (build 2550/release)
Writing library                          : VirtualDubMod build 2550/release
Video
ID                                       : 0
Format                                   : MPEG-4 Visual
Format profile                           : Advanced Simple@L5
Format settings, BVOP                    : 1
Format settings, QPel                    : No
Format settings, GMC                     : No warppoints
Format settings, Matrix                  : Custom
Codec ID                                 : XVID
Codec ID/Hint                            : XviD
Duration                                 : 2h 8mn
Bit rate                                 : 1 235 Kbps
Width                                    : 720 pixels
Height                                   : 304 pixels
Display aspect ratio                     : 2.35:1
Frame rate                               : 23.976 fps
Color space                              : YUV
Chroma subsampling                       : 4:2:0
Bit depth                                : 8 bits
Scan type                                : Progressive
Compression mode                         : Lossy
Bits/(Pixel*Frame)                       : 0.235
Stream size                              : 1.11 GiB (76%)
Writing library                          : XviD 73
Audio
ID                                       : 1
Format                                   : AC-3
Format/Info                              : Audio Coding 3
Mode extension                           : CM (complete main)
Format settings, Endianness              : Big
Codec ID                                 : 2000
Duration                                 : 2h 8mn
Bit rate mode                            : Constant
Bit rate                                 : 384 Kbps
Channel(s)                               : 6 channels
Channel positions                        : Front: L C R, Side: L R, LFE
Sampling rate                            : 48.0 KHz
Bit depth                                : 16 bits
Compression mode                         : Lossy
Stream size                              : 352 MiB (24%)
Alignment                                : Split accross interleaves
Interleave, duration                     : 42 ms (1.00 video frame)
Interleave, preload duration             : 500 ms
-
[Профиль] [ЛС]
Кто просматривает тему:

Форум Тема Автор Размер
50/50 (Pop, Dance) VA - Заводной музон в дальнюю дорогу (50/50) - 2015, MP3, 256 kbps Magnat 713 MB
Отечественные мультфильмы Алеша Попович и Тугарин Змей / Добрыня Никитич и Змей Горыныч / Илья Муромец и Соловей Разбойник / Три богатыря и Шамаханская царица / Иван Царевич и Серый Волк / Три богатыря на дальних берегах... reversefile 4.37 GB
Документальные HD Дальневосточный леопард. Борьба за таёжный престол (Наталья Кузнецова) [2014, Документальный, HDTVRip 720p] TorrentFilm 1.4 GB
Документальные HD Дальневосточный леопард. Борьба за таёжный престол (Россия HD) (Наталия Кузнецова) [2014, документальный, HDTV 1080p] TorrentFilm 3.07 GB
Другие симуляторы Дальнобойщики 3: Большие гонки (2010) PC | Лицензия Russian Mafia 2.56 GB
Фильмы (HD Rips | 720p, 1080p) Дальняя дорога / The Longest Ride (2015) BDRip 720p | iTunes достали все 7.13 GB
Фильмы 2015 года Дальняя дорога / The Longest Ride (2015) BDRip-AVC | D | iTunes достали все 2.85 GB
Фильмы 2015 года Дальняя дорога / The Longest Ride (2015) HDRip | iTunes достали все 2.18 GB
Показать сообщения:    

Текущее время: Сегодня 20:58

Часовой пояс: GMT



Вы не можете начинать темы
Вы не можете отвечать на сообщения
Вы не можете редактировать свои сообщения
Вы не можете удалять свои сообщения
Вы не можете голосовать в опросах
Вы не можете прикреплять файлы к сообщениям
Вы не можете скачивать файлы