Дальняя дорога / The Longest Ride (2015) BDRip 720p | iTunes

 
Автор Сообщение

достали все ®

Пол:

Стаж: 1 год 8 месяцев

Сообщений: 6627



Награды: 12 (Подробнее)

Mega Seeder 2 (Количество: 1) Mega Seeder 4 (Количество: 1) Mega Seeder 3 (Количество: 1)
Торрент-статистика

Создавать темы 09-Июл-2015 07:52

[Цитировать]

Информация о фильме
Название: Дальняя дорога
Оригинальное название: The Longest Ride
Год выпуска: 2015
Жанр: Драма, мелодрама
Выпущено: США, Fox 2000 Pictures, Temple Hill Entertainment
Режиссер: Джордж Тиллман мл.
В ролях: Скотт Иствуд, Бритт Робертсон, Алан Алда, Джек Хьюстон, Уна Чаплин, Мелисса Бенойст, Лолита Давидович, Элеа Оберон, Кейт Форбс, Тьяго Риани
О фильме: Люк — экс-чемпион по родео, раздумывающий над возвращением в спорт. София — выпускница колледжа, получившая заманчивое предложение о работе в сфере искусства в Нью-Йорке. В то время как молодые люди пытаются сделать нелегкий выбор между чувствами и мечтами, жизнь сталкивает их со стариком Айрой. Воспоминания нового друга о его полувековых отношениях с женой вдохновляют Софию и Люка на главные решения в их жизни. Два поколения, две истории, вечная любовь.
Качество: BDRip (720p)
Видео: MPEG-4 AVC, 6000 Кбит/с, 1280x534
Аудио: Русский (AC3, 6 ch, 384 Кбит/с), английский (DTS-ES, 6 ch, 1510 Кбит/с), (AAC, 2 ch, 58 Кбит/с)
Продолжительность: 02:08:18
Перевод: Дублированный [iTunes]
Субтитры: Английские

MI

Общее
Уникальный идентификатор : 185029349612971320290829772097050484715 (0x8B335B43A679EE4C94F79624E3819FEB)
Полное имя : C:The.Longest.Ride.2015.720p.BluRay.x264-WiKi.mkv
Формат : Matroska
Версия формата : Version 2
Размер файла : 7,13 Гбайт
Продолжительность : 2 ч. 8 м.
Общий поток : 7950 Кбит/сек
Дата кодирования : UTC 2015-07-08 20:04:51
Программа кодирования : mkvmerge v7.9.0 ('Birds') 64bit
Библиотека кодирования : libebml v1.3.1 + libmatroska v1.4.2
Видео
Идентификатор : 1
Формат : AVC
Формат/Информация : Advanced Video Codec
Профиль формата : High@L4.1
Параметр CABAC формата : Да
Параметр ReFrames формата : 12 кадров
Идентификатор кодека : V_MPEG4/ISO/AVC
Продолжительность : 2 ч. 8 м.
Номинальный битрейт : 6000 Кбит/сек
Ширина : 1280 пикселей
Высота : 534 пикселя
Соотношение сторон : 2,40:1
Режим частоты кадров : Постоянный
Частота кадров : 23,976 кадра/сек
Цветовое пространство : YUV
Субдискретизация насыщенности : 4:2:0
Битовая глубина : 8 бит
Тип развёртки : Прогрессивная
Бит/(Пиксели*Кадры) : 0.366
Библиотека кодирования : x264 core 142 r2431+42 c69a006 tMod [8-bit@all X86_64]
Настройки программы : cabac=1 / ref=12 / deblock=1:-2:-2 / analyse=0x3:0x133 / me=umh / subme=11 / psy=1 / fade_compensate=0.00 / psy_rd=1.05:0.05 / mixed_ref=1 / me_range=32 / chroma_me=1 / trellis=2 / 8x8dct=1 / cqm=0 / deadzone=21,11 / fast_pskip=0 / chroma_qp_offset=-3 / threads=12 / lookahead_threads=3 / sliced_threads=0 / nr=0 / decimate=0 / interlaced=0 / bluray_compat=0 / constrained_intra=0 / fgo=0 / bframes=10 / b_pyramid=2 / b_adapt=2 / b_bias=0 / direct=3 / weightb=1 / open_gop=0 / weightp=2 / keyint=250 / keyint_min=23 / scenecut=40 / intra_refresh=0 / rc_lookahead=100 / rc=2pass / mbtree=1 / bitrate=6000 / ratetol=1.0 / qcomp=0.70 / qpmin=0:0:0 / qpmax=69:69:69 / qpstep=4 / cplxblur=20.0 / qblur=0.5 / ip_ratio=1.40 / aq=1:0.85 / aq-sensitivity=10.00 / aq-factor=1.00:1.00:1.00 / aq2=0 / aq3=0
Язык : English
Default : Да
Forced : Нет
Аудио #1
Идентификатор : 2
Формат : AC-3
Формат/Информация : Audio Coding 3
Расширение режима : CM (complete main)
Параметр Endianness формата : Big
Идентификатор кодека : A_AC3
Продолжительность : 2 ч. 8 м.
Вид битрейта : Постоянный
Битрейт : 384 Кбит/сек
Каналы : 6 каналов
Расположение каналов : Front: L C R, Side: L R, LFE
Частота : 48,0 КГц
Метод сжатия : С потерями
Размер потока : 352 Мбайт (5%)
Язык : Russian
Default : Да
Forced : Нет
Аудио #2
Идентификатор : 3
Формат : DTS
Формат/Информация : Digital Theater Systems
Профиль формата : ES
Режим : 16
Параметр Endianness формата : Big
Идентификатор кодека : A_DTS
Продолжительность : 2 ч. 8 м.
Вид битрейта : Постоянный
Битрейт : 1509 Кбит/сек
Каналы : 6 каналов
Расположение каналов : Front: L C R, Side: L R, LFE
Частота : 48,0 КГц
Битовая глубина : 24 бит
Метод сжатия : С потерями
Размер потока : 1,35 Гбайт (19%)
Язык : English
Default : Нет
Forced : Нет
Аудио #3
Идентификатор : 4
Формат : AAC
Формат/Информация : Advanced Audio Codec
Профиль формата : HE-AAC / LC
Идентификатор кодека : A_AAC
Продолжительность : 2 ч. 8 м.
Каналы : 2 канала
Расположение каналов : Front: L R
Частота : 48,0 КГц / 24,0 КГц
Метод сжатия : С потерями
Задержка видео : 31 мс.
Заголовок : Commentary
Язык : English
Default : Нет
Forced : Нет
Текст #1
Идентификатор : 5
Формат : UTF-8
Идентификатор кодека : S_TEXT/UTF8
Идентификатор кодека/Информация : UTF-8 Plain Text
Язык : English
Default : Нет
Forced : Нет
Текст #2
Идентификатор : 6
Формат : UTF-8
Идентификатор кодека : S_TEXT/UTF8
Идентификатор кодека/Информация : UTF-8 Plain Text
Заголовок : SDH
Язык : English
Default : Нет
Forced : Нет
Текст #3
Идентификатор : 7
Формат : UTF-8
Идентификатор кодека : S_TEXT/UTF8
Идентификатор кодека/Информация : UTF-8 Plain Text
Заголовок : Commentary
Язык : English
Default : Нет
Forced : Нет
Меню
00:00:00.000 : en:00:00:00.000
00:02:13.133 : en:00:02:13.133
00:07:16.311 : en:00:07:16.311
00:10:36.302 : en:00:10:36.302
00:12:44.305 : en:00:12:44.305
00:15:41.399 : en:00:15:41.399
00:20:09.542 : en:00:20:09.542
00:23:00.546 : en:00:23:00.546
00:26:04.354 : en:00:26:04.354
00:29:09.998 : en:00:29:09.998
00:33:01.688 : en:00:33:01.688
00:37:16.234 : en:00:37:16.234
00:44:09.105 : en:00:44:09.105
00:48:59.478 : en:00:48:59.478
00:53:24.034 : en:00:53:24.034
00:57:33.116 : en:00:57:33.116
01:01:40.822 : en:01:01:40.822
01:05:01.523 : en:01:05:01.523
01:09:36.506 : en:01:09:36.506
01:11:59.649 : en:01:11:59.649
01:16:15.988 : en:01:16:15.988
01:20:55.017 : en:01:20:55.017
01:25:01.888 : en:01:25:01.888
01:29:15.141 : en:01:29:15.141
01:32:49.397 : en:01:32:49.397
01:37:15.621 : en:01:37:15.621
01:39:56.616 : en:01:39:56.616
01:42:07.913 : en:01:42:07.913
01:45:21.065 : en:01:45:21.065
01:52:07.387 : en:01:52:07.387
01:57:40.845 : en:01:57:40.845
02:02:00.313 : en:02:02:00.313

Скриншоты



[Профиль] [ЛС]
Кто просматривает тему:

Форум Тема Автор Размер
50/50 (Pop, Dance) VA - Заводной музон в дальнюю дорогу (50/50) - 2015, MP3, 256 kbps Magnat 713 MB
Отечественные мультфильмы Алеша Попович и Тугарин Змей / Добрыня Никитич и Змей Горыныч / Илья Муромец и Соловей Разбойник / Три богатыря и Шамаханская царица / Иван Царевич и Серый Волк / Три богатыря на дальних берегах... reversefile 4.37 GB
Документальные HD Дальневосточный леопард. Борьба за таёжный престол (Наталья Кузнецова) [2014, Документальный, HDTVRip 720p] TorrentFilm 1.4 GB
Документальные HD Дальневосточный леопард. Борьба за таёжный престол (Россия HD) (Наталия Кузнецова) [2014, документальный, HDTV 1080p] TorrentFilm 3.07 GB
Другие симуляторы Дальнобойщики 3: Большие гонки (2010) PC | Лицензия Russian Mafia 2.56 GB
Фильмы 2015 года Дальняя дорога / The Longest Ride (2015) BDRip-AVC | D | iTunes достали все 2.85 GB
Фильмы 2015 года Дальняя дорога / The Longest Ride (2015) HDRip | iTunes достали все 2.18 GB
Фильмы 2015 года Дальняя дорога / The Longest Ride (2015) HDRip | Лицензия достали все 2.17 GB
Показать сообщения:    

Текущее время: Сегодня 12:10

Часовой пояс: GMT



Вы не можете начинать темы
Вы не можете отвечать на сообщения
Вы не можете редактировать свои сообщения
Вы не можете удалять свои сообщения
Вы не можете голосовать в опросах
Вы не можете прикреплять файлы к сообщениям
Вы не можете скачивать файлы