Дальневосточный леопард. Борьба за таёжный престол (Наталья Кузнецова) [2014, Документальный, HDTVRip 720p]

 
Автор Сообщение

TorrentFilm ®

Пол:

Стаж: 2 года

Сообщений: 7741



Награды: Нет

Торрент-статистика

Создавать темы 21-Июл-2015 00:11

[Цитировать]

Дальневосточный леопард. Борьба за таёжный престол
Год выпуска: 2014
Страна: Россия
Студия: ВГТРК
Жанр: Документальный
Продолжительность: 00:47:56
Перевод: Не требуется
Режиссер: Наталья Кузнецова
Автор: Вадим Витовцев
Описание: Фильм открывает зрителям удивительный мир самых редких кошек на нашей планете таким, каким его не видел ни один человек. Эти неуловимые и осторожные животные появляются из ниоткуда и исчезают в никуда, растворяясь на бескрайних просторах дикой дальневосточной тайги. Съемочная группа фильма потратила больше года, чтобы снять кадры, подобные которым еще никому не удавалось сделать. Борьба за выживание, воспитание потомства, охота, трапеза, тонкости взаимоотношений внутри одной семьи и конкуренция с другими леопардами. Этот фильм – уникальный шанс увидеть своими глазами жизнь дальневосточных леопардов. Главная героиня фильма – грациозная самка леопарда Кедровка. Соседи по тайге постоянно крадут ее добычу, а хищники угрожают жизни котят. Мать вынуждена оставить логово у реки Кедровая и увести детенышей в дебри уссурийской тайги. Зимой недалеко от убежища, которое покинула Кедровка, появляется туша оленя. Чья это добыча – самой Кедровки, одного из ее выживших котят, или на берегах реки появился новый претендент на "таежный престол"? Чтобы ответить на эти вопросы и снять уникальные кадры из жизни самых скрытных кошек на Земле, команда "Моей Планеты" превращает территорию национального парка "Земля Леопарда" в огромную съемочную площадку. Во время съемок были использованы новейшие уникальные технологии и скрытые камеры. При этом важнейшим условием создания фильма являлось сохранение спокойствия животных, ничто не должно было спугнуть их с привычных мест обитания.

Тип релиза: HDTVRip 720p
Контейнер: MKV
Видео: MPEG-4 AVC (H.264), 1280x720 (16:9), 4000 Kbps, 25 fps, 0.174 bit\pixel
Аудио: AC3, 192 Кбит/с, 48 kHz, 2 ch

Исходник: HDTV1080i спасибо Burn in The USSR

x264 log

...last pass...
x264.exe: --pass 2 --bitrate 4000 --preset veryslow --level 4.1 --ref 7 --aq-mode 2 --merange 32 --bframes 6 --psy-rd 1.05:0.15 --partitions p8x8,b8x8,i4x4 --subme 9 --sar 1:1 --stats "F:\Temp\0092.log" --output "F:\Temp\0092.264" "F:\Temp\0092.avs"
avs [info]: 1280x720p 1:1 @ 25/1 fps (cfr)
x264 [info]: using SAR=1/1
x264 [info]: using cpu capabilities: MMX2 SSE2Fast SSSE3 SSE4.2 AVX
x264 [info]: profile High, level 4.1
x264 [info]: frame I:525 Avg QP:15.33 size:159371
x264 [info]: frame P:21908 Avg QP:18.27 size: 45608
x264 [info]: frame B:49488 Avg QP:21.62 size: 7185
x264 [info]: consecutive B-frames: 5.8% 8.9% 6.6% 64.5% 7.6% 5.3% 1.3%
x264 [info]: mb I I16..4: 6.3% 69.1% 24.6%
x264 [info]: mb P I16..4: 4.0% 0.0% 4.7% P16..4: 42.4% 26.8% 16.5% 0.0% 0.0% skip: 5.6%
x264 [info]: mb B I16..4: 0.3% 0.0% 0.4% B16..8: 31.4% 6.2% 1.5% direct: 6.8% skip:53.4% L0:33.5% L1:47.3% BI:19.3%
x264 [info]: 8x8 transform intra:13.1% inter:52.5%
x264 [info]: direct mvs spatial:97.9% temporal:2.1%
x264 [info]: coded y,uvDC,uvAC intra: 70.0% 69.3% 33.1% inter: 25.5% 25.4% 2.0%
x264 [info]: i16 v,h,dc,p: 33% 18% 12% 37%
x264 [info]: i8 v,h,dc,ddl,ddr,vr,hd,vl,hu: 15% 15% 9% 7% 9% 9% 9% 11% 14%
x264 [info]: i4 v,h,dc,ddl,ddr,vr,hd,vl,hu: 9% 9% 4% 8% 14% 13% 15% 12% 16%
x264 [info]: i8c dc,h,v,p: 44% 24% 19% 14%
x264 [info]: Weighted P-Frames: Y:8.3% UV:2.9%
x264 [info]: ref P L0: 57.8% 16.7% 14.6% 3.4% 3.0% 2.1% 2.2% 0.2% 0.0%
x264 [info]: ref B L0: 87.5% 7.7% 2.4% 1.2% 0.7% 0.4%
x264 [info]: ref B L1: 97.3% 2.7%
x264 [info]: kb/s:4000.06
x264 [total]: encoded 71921 frames, 14.34 fps, 4000.06 kb/s

MediaInfo

GeneralUnique ID : 223291436767361474210409597015761352951 (0xA7FC5DCEFB7FB5BFB98F3DE476CBF8F7)Complete name : D:\Видео\Флора и фауна\Дальневосточный леопард HDTVRip-720p.2014.mkvFormat : MatroskaFormat version : Version 2File size : 1.40 GiBDuration : 47mn 56sOverall bit rate : 4 194 KbpsEncoded date : UTC 2015-07-15 08:24:17Writing application : mkvmerge v7.8.0 ('River Man') 32bit built on Apr 3 2015 12:11:22Writing library : libebml v1.3.1 + libmatroska v1.4.2
VideoID : 1Format : AVCFormat/Info : Advanced Video CodecFormat profile : High@L4.1Format settings, CABAC : YesFormat settings, ReFrames : 7 framesCodec ID : V_MPEG4/ISO/AVCDuration : 47mn 56sBit rate : 4 000 KbpsWidth : 1 280 pixelsHeight : 720 pixelsDisplay aspect ratio : 16:9Frame rate mode : ConstantFrame rate : 25.000 fpsColor space : YUVChroma subsampling : 4:2:0Bit depth : 8 bitsScan type : ProgressiveBits/(Pixel*Frame) : 0.174Stream size : 1.31 GiB (93%)Writing library : x264 core 146 r2538 121396cEncoding settings : cabac=1 / ref=7 / deblock=1:0:0 / analyse=0x3:0x111 / me=umh / subme=9 / psy=1 / psy_rd=1.05:0.15 / mixed_ref=1 / me_range=32 / chroma_me=1 / trellis=2 / 8x8dct=1 / cqm=0 / deadzone=21,11 / fast_pskip=1 / chroma_qp_offset=-3 / threads=6 / lookahead_threads=1 / sliced_threads=0 / nr=0 / decimate=1 / interlaced=0 / bluray_compat=0 / constrained_intra=0 / bframes=6 / b_pyramid=2 / b_adapt=2 / b_bias=0 / direct=3 / weightb=1 / open_gop=0 / weightp=2 / keyint=250 / keyint_min=25 / scenecut=40 / intra_refresh=0 / rc_lookahead=60 / rc=2pass / mbtree=1 / bitrate=4000 / ratetol=1.0 / qcomp=0.60 / qpmin=0 / qpmax=69 / qpstep=4 / cplxblur=20.0 / qblur=0.5 / ip_ratio=1.40 / aq=2:1.00Default : YesForced : No
AudioID : 2Format : AC-3Format/Info : Audio Coding 3Mode extension : CM (complete main)Format settings, Endianness : BigCodec ID : A_AC3Duration : 47mn 56sBit rate mode : ConstantBit rate : 192 KbpsChannel(s) : 2 channelsChannel positions : Front: L RSampling rate : 48.0 KHzBit depth : 16 bitsCompression mode : LossyStream size : 65.8 MiB (5%)Default : YesForced : No

Скриншоты

[Профиль] [ЛС]
Кто просматривает тему:

Форум Тема Автор Размер
50/50 (Pop, Dance) VA - Заводной музон в дальнюю дорогу (50/50) - 2015, MP3, 256 kbps Magnat 713 MB
Отечественные мультфильмы Алеша Попович и Тугарин Змей / Добрыня Никитич и Змей Горыныч / Илья Муромец и Соловей Разбойник / Три богатыря и Шамаханская царица / Иван Царевич и Серый Волк / Три богатыря на дальних берегах... reversefile 4.37 GB
Документальные HD Дальневосточный леопард. Борьба за таёжный престол (Россия HD) (Наталия Кузнецова) [2014, документальный, HDTV 1080p] TorrentFilm 3.07 GB
Другие симуляторы Дальнобойщики 3: Большие гонки (2010) PC | Лицензия Russian Mafia 2.56 GB
Фильмы (HD Rips | 720p, 1080p) Дальняя дорога / The Longest Ride (2015) BDRip 720p | iTunes достали все 7.13 GB
Фильмы 2015 года Дальняя дорога / The Longest Ride (2015) BDRip-AVC | D | iTunes достали все 2.85 GB
Фильмы 2015 года Дальняя дорога / The Longest Ride (2015) HDRip | iTunes достали все 2.18 GB
Фильмы 2015 года Дальняя дорога / The Longest Ride (2015) HDRip | Лицензия достали все 2.17 GB
Показать сообщения:    

Текущее время: Сегодня 13:03

Часовой пояс: GMT



Вы не можете начинать темы
Вы не можете отвечать на сообщения
Вы не можете редактировать свои сообщения
Вы не можете удалять свои сообщения
Вы не можете голосовать в опросах
Вы не можете прикреплять файлы к сообщениям
Вы не можете скачивать файлы