Далеко-далеко на юге (Алексей Папшин) [1982 г., мультфильм, DVB]

 
Автор Сообщение

TorrentFilm ®

Пол:

Стаж: 2 года

Сообщений: 7741



Награды: Нет

Торрент-статистика

Создавать темы 03-Янв-2016 00:04

[Цитировать]

Далеко-далеко на юге
Жанр: мультфильм
Год выпуска: 1982
Продолжительность: 00:09:39
Режиссёр: Алексей Папшин
Описание: мультфильм о путешествии Медвежонка и Лягушонка в поисках острова с чудесным цветущим каштаном ...
Доп. информация:

Трансляция спутникового канала: "Карусель"
Качество видео: DVB
Формат видео: MPEG-PS
Видео: MPEG2 Video, 720x576, 25 fps, 3500 kbps
Аудио: MPEG Audio, 2 сh, 48 kHz, 192 kbps

MediaInfo

General
Complete name : D:\Далеко, далеко на юге. (1982)_DVB by SLuMeP.mpg
Format : MPEG-PS
File size : 260 MiB
Duration : 9mn 39s
Overall bit rate mode : Variable
Overall bit rate : 3 766 Kbps
Video
ID : 224 (0xE0)
Format : MPEG Video
Format version : Version 2
Format profile : Main@Main
Format settings, BVOP : Yes
Format settings, Matrix : Custom
Format settings, GOP : M=3, N=12
Duration : 9mn 39s
Bit rate mode : Variable
Bit rate : 3 499 Kbps
Maximum bit rate : 5 000 Kbps
Width : 720 pixels
Height : 576 pixels
Display aspect ratio : 4:3
Frame rate : 25.000 fps
Standard : PAL
Color space : YUV
Chroma subsampling : 4:2:0
Bit depth : 8 bits
Scan type : Interlaced
Scan order : Top Field First
Compression mode : Lossy
Bits/(Pixel*Frame) : 0.337
Time code of first frame : 00:00:00:00
Time code source : Group of pictures header
Stream size : 242 MiB (93%)
Audio
ID : 192 (0xC0)
Format : MPEG Audio
Format version : Version 1
Format profile : Layer 2
Duration : 9mn 39s
Bit rate mode : Constant
Bit rate : 192 Kbps
Channel(s) : 2 channels
Sampling rate : 48.0 KHz
Compression mode : Lossy
Stream size : 13.3 MiB (5%)

Скриншоты

[Профиль] [ЛС]
Кто просматривает тему:

Форум Тема Автор Размер
Pop (Рор) VA - Ты далеко, рукой не дотянуться - 2015, MP3, VBR 192-320 kbps Magnat 2.26 GB
Фантастика и фэнтези Аркадий и Борис Стругацкие - Далекая Радуга [Виктор Че, 2014, фантастика, 128 kbps] Garik014 297 MB
Кино СССР Далекая невеста (1948) DVDRip BOSS 1.46 GB
Фильмы (HD Rips | 720p, 1080p) Далеко-далеко / Далёкая страна / Far and Away (Рон Ховард / Ron Howard) [1992, США, драма, приключения, Blu-ray disc 1080p] [EUR] reversefile 41.74 GB
Боевики, детективы, триллеры Коплан возвращается издалека (Поль Кенни) [2015, Детектив, аудиокнига, MP3, 96 kbps, Вячеслав Герасимов] Magnat 220 MB
Фантастика, фэнтези Кэтрин Ласки | Серия «Волки из страны Далеко-Далеко» [6 книг] (2012-2015) [FB2, EPUB, MOBI] достали все 29 MB
Фантастика, фэнтези Манасыпов Дмитрий - Вселенная Метро 2033: К далекому синему морю (2016) FB2 достали все 2 MB
Зарубежные сериалы На Краю Вселенной / Далеко во Вселенной / Farscape [S03] (2001) DVD | P (ТНТ) Russian Mafia 59.76 GB
Показать сообщения:    

Текущее время: Сегодня 06:25

Часовой пояс: GMT



Вы не можете начинать темы
Вы не можете отвечать на сообщения
Вы не можете редактировать свои сообщения
Вы не можете удалять свои сообщения
Вы не можете голосовать в опросах
Вы не можете прикреплять файлы к сообщениям
Вы не можете скачивать файлы