Далекая невеста (1948) DVDRip

 
Автор Сообщение

BOSS ®

Пол:

Стаж: 2 года 1 месяц

Сообщений: 3735

Откуда: ODESSA



Награды: 20 (Подробнее)

Top Releaser 3 (Количество: 1) Mega Seeder 1 (Количество: 1) Top Seeder 4 (Количество: 1)
Торрент-статистика

Создавать темы 29-Авг-2015 08:31

[Цитировать]

Страна: СССР
Производство: Ашхабадская киностудия
Жанр: комедия, мелодрама, музыкальный фильм
Год выпуска: 1948
Продолжительность: 01:22:09
Перевод: Не требуется
Cубтитры: нет
Оригинальная аудиодорожка: русский
Режиссер: Евгений Иванов-Барков
В ролях:
Алты Карлиев, Василий Нещипленко, Аман Кульмамедов, Сонá (София) Клычёва, Мариам Шафигулина, А. Овезова, Сарры Каррыев (озвучивает Сергей Филиппов), К. Мурадова, М. Сейдниязов, Ашир Меляев, Саша Кириллов...
Полный список актёров
Описание:
Донской казак Захар, потерявший во время войны родных, приезжает со своим другом Керимом в Туркменистан и надеется на то, что его невеста - знатная крановщица Гюзель, которая приезжала к ним на фронт и сейчас живет в соседнем колхозе - быстро отзовется на их приезд. Но почтальон что-то напутал и Гюзель - в неведении о своем возлюбленном... А тем вpеменем отец друга (он же и председатель коневодческого колхоза) сватает ему достойную ударницу-красавицу Джамал, не подозревая о любви к ней собственного сына...- -Источник: DVD5 R5
Качество видео: DVDRip
Формат видео: AVI
Видео: 688x512 (4:3), 25 fps, XviD ~ 2341 kbps avg, 0.266 bit/pixel
Аудио: 48 kHz, Dolby Digital AC3 2.0, 192 kbps

MediaInfo

Общее
Полное имя : Dalekaya.nevesta.1948.DVDRip_[New-team]_by_AVP_Studio.avi
Формат : AVI
Формат/Информация : Audio Video Interleave
Размер файла : 1,46 Гбайт
Продолжительность : 1 ч. 22 м.
Общий поток : 2543 Кбит/сек
Программа кодирования : VirtualDubMod 1.5.10.3 | www.virtualdub-fr.org || (build 2550/release)
Библиотека кодирования : VirtualDubMod build 2550/release
Видео
Идентификатор : 0
Формат : MPEG-4 Visual
Профиль формата : Advanced Simple@L5
Параметр BVOP формата : 1
Параметр QPel формата : Нет
Параметр GMC формата : Без точки перехода
Параметр матрицы формата : Выборочная
Идентификатор кодека : XVID
Идентификатор кодека/Подсказка : XviD
Продолжительность : 1 ч. 22 м.
Битрейт : 2341 Кбит/сек
Ширина : 688 пикселей
Высота : 512 пикселей
Соотношение сторон : 4:3
Частота кадров : 25,000 кадров/сек
Цветовое пространство : YUV
Субдискретизация насыщенности : 4:2:0
Битовая глубина : 8 бит
Тип развёртки : Прогрессивная
Метод сжатия : С потерями
Бит/(Пиксели*Кадры) : 0.266
Размер потока : 1,34 Гбайт (92%)
Библиотека кодирования : XviD 73
Аудио
Идентификатор : 1
Формат : AC-3
Формат/Информация : Audio Coding 3
Расширение режима : CM (complete main)
Параметр Endianness формата : Big
Идентификатор кодека : 2000
Продолжительность : 1 ч. 22 м.
Вид битрейта : Постоянный
Битрейт : 192 Кбит/сек
Каналы : 2 канала
Расположение каналов : Front: L R
Частота : 48,0 КГц
Метод сжатия : С потерями
Размер потока : 113 Мбайт (8%)
Выравнивание : Разделение по промежуткам
Продолжительность промежутка : 40 мс. (1,00 видеокадр)
Время предзагрузки промежутка : 500 мс

Скриншоты

[Профиль] [ЛС]
Кто просматривает тему:

Форум Тема Автор Размер
Pop (Рор) VA - Ты далеко, рукой не дотянуться - 2015, MP3, VBR 192-320 kbps Magnat 2.26 GB
Фантастика и фэнтези Аркадий и Борис Стругацкие - Далекая Радуга [Виктор Че, 2014, фантастика, 128 kbps] Garik014 297 MB
Фильмы (HD Rips | 720p, 1080p) Далеко-далеко / Далёкая страна / Far and Away (Рон Ховард / Ron Howard) [1992, США, драма, приключения, Blu-ray disc 1080p] [EUR] reversefile 41.74 GB
Отечественные мультфильмы Далеко-далеко на юге (Алексей Папшин) [1982 г., мультфильм, DVB] TorrentFilm 260 MB
Боевики, детективы, триллеры Коплан возвращается издалека (Поль Кенни) [2015, Детектив, аудиокнига, MP3, 96 kbps, Вячеслав Герасимов] Magnat 220 MB
Фантастика, фэнтези Кэтрин Ласки | Серия «Волки из страны Далеко-Далеко» [6 книг] (2012-2015) [FB2, EPUB, MOBI] достали все 29 MB
Фантастика, фэнтези Манасыпов Дмитрий - Вселенная Метро 2033: К далекому синему морю (2016) FB2 достали все 2 MB
Зарубежные сериалы На Краю Вселенной / Далеко во Вселенной / Farscape [S03] (2001) DVD | P (ТНТ) Russian Mafia 59.76 GB
Показать сообщения:    

Текущее время: Сегодня 04:24

Часовой пояс: GMT



Вы не можете начинать темы
Вы не можете отвечать на сообщения
Вы не можете редактировать свои сообщения
Вы не можете удалять свои сообщения
Вы не можете голосовать в опросах
Вы не можете прикреплять файлы к сообщениям
Вы не можете скачивать файлы