Давилка / The Mangler (1994) DVDRip-AVC | P2, A

 
Автор Сообщение

sergej644 ®

Пол:

Стаж: 4 года 11 месяцев

Сообщений: 6035

Откуда: Soviet Union



Награды: Нет

Торрент-статистика

Создавать темы 15-Июл-2015 13:20

[Цитировать]

Информация о фильме
Название: Давилка
Оригинальное название: The Mangler
Год выхода: 1994
Жанр: ужасы, фантастика, триллер, комедия
Режиссер: Тоуб Хупер
В ролях: Роберт Инглунд, Тед Левайн, Дэниел Мэтмор, Джереми Кратчли, Ванесса Пайк, Деметре Филлипс, Лиза Моррис, Вера Блэкер, Эшли Хейден, Дэнни Кеог и др.
О фильме:
Бывалый детектив Джон Хаттон вызван расследовать страшные и непонятные события в мрачных стенах старинной прачечной, чьи работники становятся жертвами гигантской гладильной машины. Кажется, что сам демон повелевает древними механизмами, заставляя их перемалывать кости невинных людей.
Цинику Джону трудно поверить, что ему противостоят могущественные силы зла, но странное поведение владельца прачечной, загадочного Билла Гэртли, лишь усиливает его подозрение…

Страна: США, Австралия, ЮАР
Продолжительность: 01:45:30
Перевод: Профессиональный (двухголосый закадровый), Авторский (одноголосый закадровый).
Файл
Кодек: h.264
Качество: DVDRip-AVC
Видео: MPEG-4, 708x460@836x460, 23.976 fps ~2145 kbps
Звук:
1) 48 KHz, AC3, 2 ch ~192 Kbps - DVO
2) 48 KHz, AC3, 2 ch ~192 Kbps - AVO [Гаврилов]
3) 48 KHz, AC3, 6 ch ~448 Kbps - Original

Media Info:

General
Unique ID : 205915407033192523825016118274411742581 (0x9AE9DD66422E370683F34DBCDED84575)
Format : Matroska
Format version : Version 4 / Version 2
File size : 2.20 GiB
Duration : 1h 45mn
Overall bit rate : 2 979 Kbps
Encoded date : UTC 2015-07-15 03:57:36
Writing application : mkvmerge v8.1.0 ('Psychedelic Postcard') 64bit
Writing library : Lavf55.12.0
Attachements : Cover.jpg
Video
ID : 1
Format : AVC
Format/Info : Advanced Video Codec
Format profile : High@L4.1
Format settings, CABAC : Yes
Format settings, ReFrames : 9 frames
Codec ID : V_MPEG4/ISO/AVC
Duration : 1h 45mn
Bit rate : 2 145 Kbps
Width : 708 pixels
Height : 460 pixels
Display aspect ratio : 16:9
Frame rate mode : Constant
Frame rate : 23.976 fps
Color space : YUV
Chroma subsampling : 4:2:0
Bit depth : 8 bits
Scan type : Progressive
Bits/(Pixel*Frame) : 0.275
Stream size : 1.54 GiB (70%)
Title : MPEG-4, 708x460@836x460, 23.976 fps ~2145 kbps
Writing library : x264 core 142 r2479 dd79a61
Encoding settings : cabac=1 / ref=9 / deblock=1:-2:-1 / analyse=0x3:0x113 / me=umh / subme=10 / psy=1 / psy_rd=1.00:0.15 / mixed_ref=1 / me_range=24 / chroma_me=1 / trellis=2 / 8x8dct=1 / cqm=0 / deadzone=21,11 / fast_pskip=0 / chroma_qp_offset=-3 / threads=3 / lookahead_threads=1 / sliced_threads=0 / nr=0 / decimate=1 / interlaced=0 / bluray_compat=0 / constrained_intra=0 / bframes=16 / b_pyramid=2 / b_adapt=2 / b_bias=0 / direct=3 / weightb=1 / open_gop=0 / weightp=2 / keyint=240 / keyint_min=24 / scenecut=40 / intra_refresh=0 / rc_lookahead=50 / rc=2pass / mbtree=1 / bitrate=2145 / ratetol=1.0 / qcomp=0.60 / qpmin=0 / qpmax=69 / qpstep=4 / cplxblur=20.0 / qblur=0.5 / vbv_maxrate=62500 / vbv_bufsize=78125 / nal_hrd=none / filler=0 / ip_ratio=1.40 / aq=1:1.00
Language : Russian
Default : Yes
Forced : No
Color range : Limited
Color primaries : BT.601 NTSC
Transfer characteristics : BT.709
Matrix coefficients : BT.601
DURATION : 01:45:30.408000000
NUMBER_OF_FRAMES : 151778
NUMBER_OF_BYTES : 1697131551
_STATISTICS_WRITING_APP : mkvmerge v8.1.0 ('Psychedelic Postcard') 64bit
_STATISTICS_WRITING_DATE_UT : 2015-07-15 03:57:36
_STATISTICS_TAGS : BPS DURATION NUMBER_OF_FRAMES NUMBER_OF_BYTES
Audio #1
ID : 2
Format : AC-3
Format/Info : Audio Coding 3
Mode extension : CM (complete main)
Format settings, Endianness : Big
Codec ID : A_AC3
Duration : 1h 45mn
Bit rate mode : Constant
Bit rate : 192 Kbps
Channel(s) : 2 channels
Channel positions : Front: L R
Sampling rate : 48.0 KHz
Compression mode : Lossy
Stream size : 145 MiB (6%)
Title : 48 KHz, AC3, 2 ch ~192 Kbps - DVO
Language : Russian
Default : Yes
Forced : No
DURATION : 01:45:29.472000000
NUMBER_OF_FRAMES : 197796
NUMBER_OF_BYTES : 151907328
_STATISTICS_WRITING_APP : mkvmerge v8.1.0 ('Psychedelic Postcard') 64bit
_STATISTICS_WRITING_DATE_UT : 2015-07-15 03:57:36
_STATISTICS_TAGS : BPS DURATION NUMBER_OF_FRAMES NUMBER_OF_BYTES
Audio #2
ID : 3
Format : AC-3
Format/Info : Audio Coding 3
Mode extension : CM (complete main)
Format settings, Endianness : Big
Codec ID : A_AC3
Duration : 1h 45mn
Bit rate mode : Constant
Bit rate : 192 Kbps
Channel(s) : 2 channels
Channel positions : Front: L R
Sampling rate : 48.0 KHz
Compression mode : Lossy
Stream size : 145 MiB (6%)
Title : 48 KHz, AC3, 2 ch ~192 Kbps - AVO [Гаврилов]
Language : Russian
Default : No
Forced : No
DURATION : 01:45:30.336000000
NUMBER_OF_FRAMES : 197823
NUMBER_OF_BYTES : 151928064
_STATISTICS_WRITING_APP : mkvmerge v8.1.0 ('Psychedelic Postcard') 64bit
_STATISTICS_WRITING_DATE_UT : 2015-07-15 03:57:36
_STATISTICS_TAGS : BPS DURATION NUMBER_OF_FRAMES NUMBER_OF_BYTES
Audio #3
ID : 4
Format : AC-3
Format/Info : Audio Coding 3
Mode extension : CM (complete main)
Format settings, Endianness : Big
Codec ID : A_AC3
Duration : 1h 45mn
Bit rate mode : Constant
Bit rate : 448 Kbps
Channel(s) : 6 channels
Channel positions : Front: L C R, Side: L R, LFE
Sampling rate : 48.0 KHz
Compression mode : Lossy
Stream size : 338 MiB (15%)
Title : 48 KHz, AC3, 6 ch ~448 Kbps - Original
Language : English
Default : No
Forced : No
DURATION : 01:45:30.336000000
NUMBER_OF_FRAMES : 197823
NUMBER_OF_BYTES : 354498816
_STATISTICS_WRITING_APP : mkvmerge v8.1.0 ('Psychedelic Postcard') 64bit
_STATISTICS_WRITING_DATE_UT : 2015-07-15 03:57:36
_STATISTICS_TAGS : BPS DURATION NUMBER_OF_FRAMES NUMBER_OF_BYTES
Menu
00:00:00.000 : :Chapter 1
00:05:39.089 : :Chapter 2
00:11:11.421 : :Chapter 3
00:18:15.511 : :Chapter 4
00:22:48.617 : :Chapter 5
00:26:43.685 : :Chapter 6
00:30:28.910 : :Chapter 7
00:37:37.672 : :Chapter 8
00:41:29.570 : :Chapter 9
00:47:55.456 : :Chapter 10
00:50:48.963 : :Chapter 11
00:56:22.129 : :Chapter 12
01:02:43.927 : :Chapter 13
01:09:06.893 : :Chapter 14
01:14:35.054 : :Chapter 15
01:21:18.290 : :Chapter 16
01:25:14.026 : :Chapter 17
01:28:27.135 : :Chapter 18
01:32:14.446 : :Chapter 19
01:37:28.676 : :Chapter 20
01:41:48.102 : :Chapter 21

Скриншоты

[Профиль] [ЛС]

Создавать темы 06-Авг-2015 22:23 (спустя 22 дня)

Топик был перенесен из форума Фильмы до 2014 года в форум Фильмы до 2012 года
sergej644
 
Кто просматривает тему:

Показать сообщения:    

Текущее время: Сегодня 18:19

Часовой пояс: GMT



Вы не можете начинать темы
Вы не можете отвечать на сообщения
Вы не можете редактировать свои сообщения
Вы не можете удалять свои сообщения
Вы не можете голосовать в опросах
Вы не можете прикреплять файлы к сообщениям
Вы не можете скачивать файлы