Гусятница / Принцесса для гусей / Die Gänsemagd / Die Gaensemagd (Сибилла Тафель / Sibylle Tafel) [2009, Германия, детский, семейный, сказка, HDTVRip] MVO (ТВЦ) + Dub (Карусель) + Original Ger

 
Автор Сообщение

TorrentFilm ®

Пол:

Стаж: 2 года

Сообщений: 7741



Награды: Нет

Торрент-статистика

Создавать темы 13-Янв-2016 00:08

[Цитировать]

Гусятница / Принцесса для гусей / Die Gänsemagd / Die Gaensemagd
Страна: Германия
Жанр: детский, семейный, сказка
Год выпуска: 2009
Продолжительность: 00:58:40
Перевод: Профессиональный (многоголосый закадровый) компания "Игмар"
Перевод 2: Профессиональный (дублированный) по заказу ЗАО «Первый канал. Всемирная сеть»
Cубтитры: нет
Оригинальная аудиодорожка: немецкий
Режиссер: Сибилла Тафель / Sibylle Tafel
В ролях: Каролина Херфурт, Флориан Лукас, Сюзанне Борманн, Юлиус Рёмер, Петра Келлинг, Хенри Хюбхен, Рихард ван Вейден, Юле Дорманн, Паулина Рюммеляйн, Катрин Фильцен
Описание: Королева-мать отправляет свою дочь Елизавету в далекое королевство, с принцем которого девушка должна обручиться. Принцессу сопровождает ее служанка Магдалена. По дороге она принуждает Елизавету поменяться ролями, чтобы обманом выйти замуж за принца Леопольда. В дворце короля, пока не раскрыт обман, настоящая принцесса вынуждена служить пастушкой для гусей. Но как ни старалась Магдалена скрыть свой ужасный поступок, тайна раскрылась...
Доп. информация: Рип с канала 1HD. Из видеоряда удален логотип канала и прочие посторонние элементы.
Сэмпл: http://multi-up.com/1083523
Качество видео: HDTVRip
Формат видео: AVI
Видео: MPEG4, XviD, 720x400 (16:9), 25.000 fps, 2 045 Kbps (0.284 bit/pixel)
Аудио: AC-3, 48.0 KHz, 2 ch, 192 Kbps, CBR - mvo
Аудио 2: AC-3, 48.0 KHz, 2 ch, 192 Kbps, CBR - dub
Аудио 3: AC-3, 48.0 KHz, 2 ch, 224 Kbps, CBR - немецкий

MediaInfo

бщее
Полное имя : N:\Принцесса для гусей.avi
Формат : AVI
Формат/Информация : Audio Video Interleave
Размер файла : 1,10 Гбайт
Продолжительность : 58 м.
Общий поток : 2672 Кбит/сек
Название фильма : Принцесса для гусей / Die Gansemagd (2009)
Программа кодирования : VirtualDubMod 1.5.10.2 (build 2540/release)
Библиотека кодирования : VirtualDubMod build 2540/release
Авторское право : miha2154
Видео
Идентификатор : 0
Формат : MPEG-4 Visual
Профиль формата : Advanced Simple@L5
Параметр BVOP формата : 1
Параметр QPel формата : Нет
Параметр GMC формата : Без точки перехода
Параметр матрицы формата : Выборочная
Идентификатор кодека : XVID
Идентификатор кодека/Подсказка : XviD
Продолжительность : 58 м.
Битрейт : 2045 Кбит/сек
Ширина : 720 пикселей
Высота : 400 пикселей
Соотношение сторон : 16:9
Частота кадров : 25,000 кадров/сек
Цветовое пространство : YUV
Субдискретизация насыщенности : 4:2:0
Битовая глубина : 8 бит
Тип развёртки : Прогрессивная
Метод сжатия : С потерями
Бит/(Пиксели*Кадры) : 0.284
Размер потока : 858 Мбайт (77%)
Библиотека кодирования : XviD 65
Аудио #1
Идентификатор : 1
Формат : AC-3
Формат/Информация : Audio Coding 3
Расширение режима : CM (complete main)
Параметр Endianness формата : Big
Идентификатор кодека : 2000
Продолжительность : 58 м.
Вид битрейта : Постоянный
Битрейт : 192 Кбит/сек
Каналы : 2 канала
Расположение каналов : Front: L R
Частота : 48,0 КГц
Частота кадров : 31,250 кадров/сек (1536 spf)
Метод сжатия : С потерями
Размер потока : 80,6 Мбайт (7%)
Выравнивание : Разделение по промежуткам
Продолжительность промежутка : 40 мс. (1,00 видеокадр)
Время предзагрузки промежутка : 500 мс.
Заголовок : Профессиональный (многоголосый закадровый) ТВЦ
Аудио #2
Идентификатор : 2
Формат : AC-3
Формат/Информация : Audio Coding 3
Расширение режима : CM (complete main)
Параметр Endianness формата : Big
Идентификатор кодека : 2000
Продолжительность : 58 м.
Вид битрейта : Постоянный
Битрейт : 192 Кбит/сек
Каналы : 2 канала
Расположение каналов : Front: L R
Частота : 48,0 КГц
Частота кадров : 31,250 кадров/сек (1536 spf)
Метод сжатия : С потерями
Размер потока : 80,6 Мбайт (7%)
Выравнивание : Разделение по промежуткам
Продолжительность промежутка : 40 мс. (1,00 видеокадр)
Время предзагрузки промежутка : 500 мс.
Заголовок : Профессиональный (полное дублирование) Карусель
Аудио #3
Идентификатор : 3
Формат : AC-3
Формат/Информация : Audio Coding 3
Расширение режима : CM (complete main)
Параметр Endianness формата : Big
Идентификатор кодека : 2000
Продолжительность : 58 м.
Вид битрейта : Постоянный
Битрейт : 224 Кбит/сек
Каналы : 2 канала
Расположение каналов : Front: L R
Частота : 48,0 КГц
Частота кадров : 31,250 кадров/сек (1536 spf)
Метод сжатия : С потерями
Размер потока : 94,0 Мбайт (8%)
Выравнивание : Разделение по промежуткам
Продолжительность промежутка : 40 мс. (1,00 видеокадр)
Время предзагрузки промежутка : 500 мс.
Заголовок : Немецкий

Скриншоты


[Профиль] [ЛС]

Создавать темы 12-Июн-2016 07:56 (спустя 4 месяца 30 дней)

Топик был перенесен из форума Фильмы 2011 года в форум Фильмы 2009 года
Russian Mafia
 
Кто просматривает тему:

Показать сообщения:    

Текущее время: Сегодня 06:03

Часовой пояс: GMT



Вы не можете начинать темы
Вы не можете отвечать на сообщения
Вы не можете редактировать свои сообщения
Вы не можете удалять свои сообщения
Вы не можете голосовать в опросах
Вы не можете прикреплять файлы к сообщениям
Вы не можете скачивать файлы